\m/ 80's metal \m/

Информационно-аналитический форум "80 см пыли" (In Search We Trust) "У нас никто никуда не спешит"
Железнодорожная биржа - RailAgent
It is currently 26 Apr 2018

All times are UTC + 3 hours

Spoiler
Chat - temporary registration for foreign users (please leave your application here)







Post new topic Reply to topic  [ 7 posts ] 
Author Message
 
PostPosted: 27 Mar 2010 
Old Time Rock`n`Roll
User avatar
Joined: 23 Jun 2008
Posts: 3334
Lоcаtion: г.Ульяновск
Age: 39
Name: Константин
Recon – Behind Enemy Lines (1990)

Image

Year: 1990
Style: Melodic Heavy Metal
Country: USA
Format: FLAC (tracks) + log + cue + no scans & mp3-320
Size: 315 Mb + 110 Mb

Tracklist
01. In The Beginning (1:33)
02. Last Soldier (4:53)
03. Ancient Of Days (5:36)
04. Choose This Day (5:42)
05. Dreams (5:12)
06. Take Us Away (3:44)
07. Holy Is The Lord (6:03)
08. Alive! (4:09)
09. Eternal Destiny (5:43)
10. Behind Enemy Lines (4:17)
11. Uncknown Track (0:55)

TPT – 48:03

Line-Up
Eddie Starline - Rhythm Guitars
George Ochoa - Lead/Rhythm/Acoustic Guitars
John Christianson - Drums
Mike Grato - Bass
Vett Roberts - Lead Vocals

Album Credits:
Produced: George Ochoa
Engineered: Eric Kibbe & Corky Winans
Mixed: George Ochoa & Corky Winans
Mastered: John Matousek

Album Credits:
Cover Concept: George Ochoa
Art Direction: Ed McTaggart
Layout: Joe Potter
Cover Photography: Douglas Cloutier
Live Photography: Greg Durand, Catherine Ochoa & Judy Grato
Cover Illustration: Jeff Foster

Log
Exact Audio Copy V0.99 prebeta 5 from 4. May 2009

EAC extraction logfile from 1. March 2010, 9:29

Recon / Behind Enemy Lines

Used drive : HL-DT-STCD-RW GCE-8483B Adapter: 1 ID: 1

Read mode : Secure
Utilize accurate stream : Yes
Defeat audio cache : Yes
Make use of C2 pointers : Yes

Read offset correction : 6
Overread into Lead-In and Lead-Out : No
Fill up missing offset samples with silence : Yes
Delete leading and trailing silent blocks : No
Null samples used in CRC calculations : No
Used interface : Installed external ASPI interface
Gap handling : Not detected, thus appended to previous track

Used output format : User Defined Encoder
Selected bitrate : 1024 kBit/s
Quality : High
Add ID3 tag : No
Command line compressor : C:\Program Files\Exact Audio Copy\Flac\flac.exe
Additional command line options : --best -T "ARTIST=%a" -T "TITLE=%t" -T "ALBUM=%g" -T "DATE=%y" -T "TRACKNUMBER=%n" -T "GENRE=%m" %s


TOC of the extracted CD

Track | Start | Length | Start sector | End sector
---------------------------------------------------------
1 | 0:00.50 | 1:32.27 | 50 | 6976
2 | 1:33.02 | 4:54.15 | 6977 | 29041
3 | 6:27.17 | 5:34.13 | 29042 | 54104
4 | 12:01.30 | 5:42.40 | 54105 | 79794
5 | 17:43.70 | 5:13.52 | 79795 | 103321
6 | 22:57.47 | 3:53.40 | 103322 | 120836
7 | 26:51.12 | 6:02.55 | 120837 | 148041
8 | 32:53.67 | 4:07.33 | 148042 | 166599
9 | 37:01.25 | 5:46.17 | 166600 | 192566
10 | 42:47.42 | 4:19.65 | 192567 | 212056
11 | 47:07.32 | 0:55.68 | 212057 | 216249


Track 1

Filename C:\Documents and Settings\Kevin\My Documents\Downloads\Lossless Audio\Metal\Recon\Behind Enemy Lines\01-In The Beginning.wav

Peak level 44.8 %
Track quality 100.0 %
Copy CRC 71AB9386
Accurately ripped (confidence 2) [F2EA8967]
Copy OK

Track 2

Filename C:\Documents and Settings\Kevin\My Documents\Downloads\Lossless Audio\Metal\Recon\Behind Enemy Lines\02-Lost Soldier.wav

Peak level 95.1 %
Track quality 99.9 %
Copy CRC 9B5CCCCF
Accurately ripped (confidence 2) [31FABC8B]
Copy OK

Track 3

Filename C:\Documents and Settings\Kevin\My Documents\Downloads\Lossless Audio\Metal\Recon\Behind Enemy Lines\03-Ancient of Days.wav

Peak level 95.3 %
Track quality 100.0 %
Copy CRC 9459C352
Accurately ripped (confidence 2) [448887E4]
Copy OK

Track 4

Filename C:\Documents and Settings\Kevin\My Documents\Downloads\Lossless Audio\Metal\Recon\Behind Enemy Lines\04-Choose This Day.wav

Peak level 97.2 %
Track quality 100.0 %
Copy CRC 12C40BAC
Accurately ripped (confidence 2) [79373554]
Copy OK

Track 5

Filename C:\Documents and Settings\Kevin\My Documents\Downloads\Lossless Audio\Metal\Recon\Behind Enemy Lines\05-Dreams.wav

Peak level 100.0 %
Track quality 100.0 %
Copy CRC 7940F8E4
Accurately ripped (confidence 2) [80420D3C]
Copy OK

Track 6

Filename C:\Documents and Settings\Kevin\My Documents\Downloads\Lossless Audio\Metal\Recon\Behind Enemy Lines\06-Take Us Away.wav

Peak level 97.2 %
Track quality 100.0 %
Copy CRC 3D4B2A15
Accurately ripped (confidence 2) [2430AB50]
Copy OK

Track 7

Filename C:\Documents and Settings\Kevin\My Documents\Downloads\Lossless Audio\Metal\Recon\Behind Enemy Lines\07-Holy Is The Lord.wav

Peak level 90.9 %
Track quality 100.0 %
Copy CRC D191F568
Accurately ripped (confidence 2) [B68AD680]
Copy OK

Track 8

Filename C:\Documents and Settings\Kevin\My Documents\Downloads\Lossless Audio\Metal\Recon\Behind Enemy Lines\08-Alive!.wav

Peak level 94.4 %
Track quality 100.0 %
Copy CRC 7220F41B
Track not present in AccurateRip database
Copy OK

Track 9

Filename C:\Documents and Settings\Kevin\My Documents\Downloads\Lossless Audio\Metal\Recon\Behind Enemy Lines\09-Eternal Destiny.wav

Peak level 97.5 %
Track quality 100.0 %
Copy CRC F49A8387
Accurately ripped (confidence 2) [C7EF9F93]
Copy OK

Track 10

Filename C:\Documents and Settings\Kevin\My Documents\Downloads\Lossless Audio\Metal\Recon\Behind Enemy Lines\10-Behind Enemy Lines.wav

Peak level 93.1 %
Track quality 100.0 %
Copy CRC 53819893
Accurately ripped (confidence 2) [36F22DB7]
Copy OK

Track 11

Filename C:\Documents and Settings\Kevin\My Documents\Downloads\Lossless Audio\Metal\Recon\Behind Enemy Lines\11-(Unknown).wav

Peak level 55.0 %
Track quality 100.0 %
Copy CRC EDF25674
Accurately ripped (confidence 2) [130AA440]
Copy OK


10 track(s) accurately ripped
1 track(s) not present in the AccurateRip database

Some tracks could not be verified as accurate

No errors occurred

End of status report


Cue
REM GENRE Metal
REM DATE 1990
REM DISCID A50B430B
REM COMMENT "ExactAudioCopy v0.99pb5"
PERFORMER "Recon"
TITLE "Behind Enemy Lines"
FILE "01-In The Beginning.wav" WAVE
TRACK 01 AUDIO
TITLE "In The Beginning"
PERFORMER "Recon"
PREGAP 00:00:50
INDEX 01 00:00:00
FILE "02-Lost Soldier.wav" WAVE
TRACK 02 AUDIO
TITLE "Lost Soldier"
PERFORMER "Recon"
INDEX 01 00:00:00
FILE "03-Ancient of Days.wav" WAVE
TRACK 03 AUDIO
TITLE "Ancient of Days"
PERFORMER "Recon"
INDEX 01 00:00:00
FILE "04-Choose This Day.wav" WAVE
TRACK 04 AUDIO
TITLE "Choose This Day"
PERFORMER "Recon"
INDEX 01 00:00:00
FILE "05-Dreams.wav" WAVE
TRACK 05 AUDIO
TITLE "Dreams"
PERFORMER "Recon"
INDEX 01 00:00:00
TRACK 06 AUDIO
TITLE "Take Us Away"
PERFORMER "Recon"
INDEX 00 05:12:57
FILE "06-Take Us Away.wav" WAVE
INDEX 01 00:00:00
FILE "07-Holy Is The Lord.wav" WAVE
TRACK 07 AUDIO
TITLE "Holy Is The Lord"
PERFORMER "Recon"
INDEX 01 00:00:00
TRACK 08 AUDIO
TITLE "Alive!"
PERFORMER "Recon"
INDEX 00 06:01:50
FILE "08-Alive!.wav" WAVE
INDEX 01 00:00:00
FILE "09-Eternal Destiny.wav" WAVE
TRACK 09 AUDIO
TITLE "Eternal Destiny"
PERFORMER "Recon"
INDEX 01 00:00:00
TRACK 10 AUDIO
TITLE "Behind Enemy Lines"
PERFORMER "Recon"
INDEX 00 05:44:37
FILE "10-Behind Enemy Lines.wav" WAVE
INDEX 01 00:00:00
TRACK 11 AUDIO
TITLE "(Unknown)"
PERFORMER "Recon"
INDEX 00 04:18:60
FILE "11-(Unknown).wav" WAVE
INDEX 01 00:00:00


FLAC
megaupload-FLAC

mp3-320
narod-320

Рип от kmetal71, не совсем правильный, с включенными указателями С2, правда на качество звучания это не повлияло, скачков,провалов и прочих косяков нет, полноценный лосслесс согласно Тау Аналайзер.
Для тех, кому нравится Queensryche.

Image


Top
 Profile  
 
 
PostPosted: 27 Mar 2010 
хард н хэвщик (support team)
User avatar
Joined: 02 Jun 2008
Posts: 16879
Lоcаtion: Н.Новгород
Age: 31
Name: Артем
:true:


Top
 Profile  
 
 
PostPosted: 28 Mar 2010 
Труъ
User avatar
Joined: 14 Jul 2009
Posts: 158
Lоcаtion: Hell Is Here
Age: 47
Name: Adriano
Thank You very much !! :thanx:


Top
 Profile E-mail  
 
 
PostPosted: 28 Mar 2010 
Я набрал 1000 сообщений!
User avatar
Joined: 25 Dec 2008
Posts: 1545
Age: 42
Name: Павел
Коврики:
http://img.photobucket.com/albums/v256/ ... /Recon.jpg


Top
 Profile  
 
 
PostPosted: 29 Mar 2010 
Metal Collector
User avatar
Joined: 16 Nov 2008
Posts: 1210
Lоcаtion: Химки
Age: 35
Name: Андрей
Вот оно счастье! Не думал, что найду нормального лося когда-нибудь :true: Спасибо!


Top
 Profile E-mail  
 
 
PostPosted: 29 Mar 2010 
А может смените мне статус?..
Joined: 03 Jul 2009
Posts: 757
Lоcаtion: Serbia
Name: Laki
Thanks very much for this !!!!!!!!!!!!!!!! :thanx:


Top
 Profile E-mail  
 
 
PostPosted: 19 Apr 2010 
metallpaparazzy
User avatar
Joined: 20 Dec 2009
Posts: 674
Lоcаtion: Днепропетровск
Age: 43
Name: Геннадий
:thanx:
отличный альбом!


Top
 Profile E-mail  
 
Display posts from previous:  Sort by  
Post new topic Reply to topic  [ 7 posts ] 

All times are UTC + 3 hours


Who is online

Users browsing this forum: No registered users and 3 guests


You cannot post new topics in this forum
You cannot reply to topics in this forum
You cannot edit your posts in this forum
You cannot delete your posts in this forum
You cannot post attachments in this forum

Search for:
Яндекс.Метрика
Powered by phpBB © 2000, 2002, 2005, 2007 phpBB Group