\m/ 80's metal \m/

Информационно-аналитический форум "80 см пыли" (In Search We Trust) "У нас никто никуда не спешит"
Me For You - http://me-4u.com
It is currently 21 Aug 2019

All times are UTC + 3 hours

Spoiler
Chat - temporary registration for foreign users (please leave your application here)







Post new topic Reply to topic  [ 5 posts ] 
Author Message
 
PostPosted: 27 Mar 2010 
Генеральный thrasher
User avatar
Joined: 03 Oct 2008
Posts: 3717
Lоcаtion: Ханты-Мансийский АО
Age: 44
Name: Сергей
Image

Year: 1987
Country: Brasil
Style: Thrash/Crossover
Format: Flac+Cue+Log
Size: 195Mb
Label: Cogumelo Records

Line-Up:
Gordo - vocals
Jaba - bass
Jгo - guitars
Spaghetti - drums

Tracklist:
1. Tattoo Maniax 02:01
2. Plano Furado 02:15
3. Ignorancia 02:33
4. Crise Geral 02:20
5. Morte e Desespero 04:31
6. Pensamento de Trincheira 03:25
7. Peste Sexual 01:27
8. Sentir Odio e Nada Mais 03:06
9. Assalto na Esquina 00:13
10. Nao Ha Outras Vidas 03:47
11. V.C.D.M.S.A. 00:47

Cue
REM GENRE Hardcore
REM DATE 1987
REM DISCID 7F064D0C
REM COMMENT "ExactAudioCopy v0.99pb4"
PERFORMER "Ratos de Porгo"
TITLE "Cada Dia Mais Sujo e Agressivo"
FILE "Ratos de Porгo - Cada Dia Mais Sujo e Agressivo.flac" WAVE
TRACK 01 AUDIO
TITLE "Tatoo Maniac"
PERFORMER "Ratos de Porгo"
INDEX 01 00:00:00
TRACK 02 AUDIO
TITLE "Plano Furado"
PERFORMER "Ratos de Porгo"
INDEX 00 01:57:68
INDEX 01 01:59:35
TRACK 03 AUDIO
TITLE "Ignorвncia"
PERFORMER "Ratos de Porгo"
INDEX 00 04:11:30
INDEX 01 04:12:74
TRACK 04 AUDIO
TITLE "Crise Geral"
PERFORMER "Ratos de Porгo"
INDEX 00 06:43:36
INDEX 01 06:45:04
TRACK 05 AUDIO
TITLE "Morte e Desespero"
PERFORMER "Ratos de Porгo"
INDEX 00 09:02:38
INDEX 01 09:04:07
TRACK 06 AUDIO
TITLE "Pensamento de Trincheira"
PERFORMER "Ratos de Porгo"
INDEX 00 13:34:60
INDEX 01 13:36:27
TRACK 07 AUDIO
TITLE "Peste Sexual"
PERFORMER "Ratos de Porгo"
INDEX 00 16:58:61
INDEX 01 17:00:28
TRACK 08 AUDIO
TITLE "Sentir Уdio e Nada Mais"
PERFORMER "Ratos de Porгo"
INDEX 00 18:25:01
INDEX 01 18:26:45
TRACK 09 AUDIO
TITLE "Assalto Na Esquina"
PERFORMER "Ratos de Porгo"
INDEX 00 21:28:62
INDEX 01 21:30:30
TRACK 10 AUDIO
TITLE "Nгo Hб"
PERFORMER "Ratos de Porгo"
INDEX 00 21:41:19
INDEX 01 21:42:61
TRACK 11 AUDIO
TITLE "Outras Vidas"
PERFORMER "Ratos de Porгo"
INDEX 00 25:27:30
INDEX 01 25:28:74
TRACK 12 AUDIO
TITLE "V.C.D.M.S.A."
PERFORMER "Ratos de Porгo"
INDEX 00 26:06:17
INDEX 01 26:07:61


Log
Exact Audio Copy V0.99 prebeta 4 from 23. January 2008

Отчёт EAC об извлечении, выполненном 2. ноября 2010, 9:23

Ratos de Porгo / Cada Dia Mais Sujo e Agressivo

Дисковод: TSSTcorpCDDVDW SH-S202N Adapter: 0 ID: 1

Режим чтения : Достоверность
Использование точного потока : Да
Отключение кэша аудио : Да
Использование указателей C2 : Нет

Коррекция смещения при чтении : 6
Способность читать области Lead-in и Lead-out : Нет
Заполнение пропущенных сэмплов тишиной : Да
Удаление блоков с тишиной в начале и конце : Нет
При вычислениях CRC использовались нулевые сэмплы : Да
Интерфейс : Установленный внешний ASPI-интерфейс

Выходной формат : Пользовательский кодировщик
Выбранный битрейт : 768 kBit/s
Качество : Высокий
Добавление ID3-тэга : Нет
Утилита сжатия : C:\Program Files\Exact Audio Copy\FLAC\FLAC.EXE
Дополнительные параметры : -6 -V -T "ARTIST=%a" -T "TITLE=%t" -T "ALBUM=%g" -T "DATE=%y" -T "TRACKNUMBER=%n" -T "GENRE=%m" -T "COMMENT=%e" %s -o %d


TOC извлечённого CD

Трек | Старт | Длительность | Начальный сектор | Конечный сектор
---------------------------------------------------------------------
1 | 0:00.00 | 1:59.35 | 0 | 8959
2 | 1:59.35 | 2:13.39 | 8960 | 18973
3 | 4:12.74 | 2:32.05 | 18974 | 30378
4 | 6:45.04 | 2:19.03 | 30379 | 40806
5 | 9:04.07 | 4:32.20 | 40807 | 61226
6 | 13:36.27 | 3:24.01 | 61227 | 76527
7 | 17:00.28 | 1:26.17 | 76528 | 82994
8 | 18:26.45 | 3:03.60 | 82995 | 96779
9 | 21:30.30 | 0:12.31 | 96780 | 97710
10 | 21:42.61 | 3:46.13 | 97711 | 114673
11 | 25:28.74 | 0:38.62 | 114674 | 117585
12 | 26:07.61 | 0:45.22 | 117586 | 120982


Характеристики диапазона извлечения и сообщения об ошибках

Выбранный диапазон

Имя файла F:\Лоси\Ratos De Porao\Ratos de Porгo - Cada Dia Mais Sujo e Agressivo.wav

Пиковый уровень 97.7 %
Качество диапазона 100.0 %
CRC копии 9512F387
Копирование... OK

Ошибок не произошло


AccurateRip: сводка

Трек 1 нет в базе данных
Трек 2 нет в базе данных
Трек 3 нет в базе данных
Трек 4 нет в базе данных
Трек 5 нет в базе данных
Трек 6 нет в базе данных
Трек 7 нет в базе данных
Трек 8 нет в базе данных
Трек 9 нет в базе данных
Трек 10 нет в базе данных
Трек 11 нет в базе данных
Трек 12 нет в базе данных

Ни одного трека нет в базе AccurateRip

Конец отчёта


Megaupload


Last edited by thorbeorn on 07 Nov 2010, edited 2 times in total.

Top
 Profile  
 
 
PostPosted: 27 Mar 2010 
Хиппей (support team)
User avatar
Joined: 30 Jul 2007
Posts: 114028
Lоcаtion: Киев (Kyiv, UA)
Age: 46
Name: Andrey
:thanx:

_________________


Top
 Profile E-mail  
 
 
PostPosted: 07 Nov 2010 
Генеральный thrasher
User avatar
Joined: 03 Oct 2008
Posts: 3717
Lоcаtion: Ханты-Мансийский АО
Age: 44
Name: Сергей
Ссылка заменена рипом с моего диска.Сканы в архиве.


Top
 Profile  
 
 
PostPosted: 07 Nov 2010 
Позитивный Южанин
User avatar
Joined: 07 May 2010
Posts: 1620
Lоcаtion: КРЫМ
Age: 44
Name: Алексей
:thanx:

_________________
WATER'EM ALL!


Top
 Profile E-mail  
 
 
PostPosted: 25 Jul 2011 
ТрэшЭрос
User avatar
Joined: 18 Jul 2011
Posts: 2304
Lоcаtion: Гулькевичи
Age: 44
Name: Александр
:thanx: :true: :true: :true:

_________________
Thrash no trash!!!


Top
 Profile E-mail  
 
Display posts from previous:  Sort by  
Post new topic Reply to topic  [ 5 posts ] 

All times are UTC + 3 hours


Who is online

Users browsing this forum: No registered users and 1 guest


You cannot post new topics in this forum
You cannot reply to topics in this forum
You cannot edit your posts in this forum
You cannot delete your posts in this forum
You cannot post attachments in this forum

Search for:
Яндекс.Метрика
Powered by phpBB © 2000, 2002, 2005, 2007 phpBB Group