\m/ 80's metal \m/

Информационно-аналитический форум "80 см пыли" (In Search We Trust) "У нас никто никуда не спешит"
Me For You - http://me-4u.com
It is currently 11 Dec 2019

All times are UTC + 3 hours

Spoiler
Chat - temporary registration for foreign users (please leave your application here)







Post new topic Reply to topic  [ 10 posts ] 
Author Message
 
PostPosted: 24 Mar 2010 
ыыыы
User avatar
Joined: 17 May 2009
Posts: 952
Lоcаtion: Пушкино, МО
Age: 41
Name: Дмитрий
Image


Жанр: Hard Rock
Происхождение исполнителя: США
Год издания: 1985
Год издания данного носителя: 1991
Страна-производитель носителя: Япония
Аудио кодек: FLAC
Тип рипа: image+.cue
Битрейт аудио: lossless
Продолжительность: 42:38
Рип: Собственный
Лейбл: WEA/WARNER-PIONEER
Каталоговый номер: WPCP-4026
Матрица: WPCP-4026 SP-9GA (DENON)

Треклист:
1. Take Her 03:39 (Dio, Ronnie James/Alford, David/Hager, Chris/Shortino, Paul/Thorr, Matt/Goldie)
2. Piece of My Heart 04:48 (Berns, Bert/Ragovoy, Jerry)
3. Never Gonna Die 04:22
4. Dreamin' Again 05:49 (Dio, Wendy/Alford, David/Hager, Chris/Shortino, Paul/Thorr, Matt)
5. Cutt Your Heart Out 02:29
6. Black Widow 04:33
7. You Keep Breaking My Heart 05:14
8. Kids Will Rock 04:02
9. Dressed to Kill 04:15 (Alford, David/Hager, Chris/Shortino, Paul)
10. She's Too Hott 03:28

"Куй"
REM GENRE "Hard Rock"
REM DATE 1985
REM DISCID 7509FE0A
REM COMMENT "ExactAudioCopy v0.99pb5"
PERFORMER "Rough Cutt"
TITLE "Rough Cutt [WPCP-4026] "
FILE "Rough Cutt - Rough Cutt [WPCP-4026].flac" WAVE
TRACK 01 AUDIO
TITLE "Take Her"
PERFORMER "Rough Cutt"
INDEX 01 00:00:00
TRACK 02 AUDIO
TITLE "Piece Of My Heart"
PERFORMER "Rough Cutt"
INDEX 00 03:38:62
INDEX 01 03:39:12
TRACK 03 AUDIO
TITLE "Never Gonna Die"
PERFORMER "Rough Cutt"
INDEX 00 08:24:22
INDEX 01 08:27:47
TRACK 04 AUDIO
TITLE "Dreamin' Again"
PERFORMER "Rough Cutt"
INDEX 00 12:48:10
INDEX 01 12:49:20
TRACK 05 AUDIO
TITLE "Cutt Your Heart Out"
PERFORMER "Rough Cutt"
INDEX 00 18:37:27
INDEX 01 18:38:00
TRACK 06 AUDIO
TITLE "Black Widow"
PERFORMER "Rough Cutt"
INDEX 01 21:06:47
TRACK 07 AUDIO
TITLE "You Keep Breaking My Heart"
PERFORMER "Rough Cutt"
INDEX 00 25:39:30
INDEX 01 25:39:50
TRACK 08 AUDIO
TITLE "Kids Will Rock"
PERFORMER "Rough Cutt"
INDEX 01 30:53:32
TRACK 09 AUDIO
TITLE "Dressed To Kill"
PERFORMER "Rough Cutt"
INDEX 00 34:55:27
INDEX 01 34:55:52
TRACK 10 AUDIO
TITLE "She's Too Hott"
PERFORMER "Rough Cutt"
INDEX 00 39:10:22
INDEX 01 39:10:45


"Лог"
Exact Audio Copy V0.99 prebeta 5 from 4. May 2009

EAC extraction logfile from 24. March 2010, 18:00

Rough Cutt / Rough Cutt [WPCP-4026]

Used drive : ASUS DRW-2014S1T Adapter: 1 ID: 1

Read mode : Secure
Utilize accurate stream : Yes
Defeat audio cache : Yes
Make use of C2 pointers : No

Read offset correction : 6
Overread into Lead-In and Lead-Out : No
Fill up missing offset samples with silence : Yes
Delete leading and trailing silent blocks : No
Null samples used in CRC calculations : Yes
Used interface : Installed external ASPI interface

Used output format : User Defined Encoder
Selected bitrate : 128 kBit/s
Quality : High
Add ID3 tag : No
Command line compressor : C:\Program Files\Exact Audio Copy\Flac\flac.exe
Additional command line options : -8 -V -T "artist=%a" -T "title=%t" -T "album=%g" -T "date=%y" -T "tracknumber=%n" -T "genre=%m" -T "comment=EAC 0.9beta4 / FLAC 1.1.0 q6" %s


TOC of the extracted CD

Track | Start | Length | Start sector | End sector
---------------------------------------------------------
1 | 0:00.00 | 3:39.12 | 0 | 16436
2 | 3:39.12 | 4:48.35 | 16437 | 38071
3 | 8:27.47 | 4:21.48 | 38072 | 57694
4 | 12:49.20 | 5:48.55 | 57695 | 83849
5 | 18:38.00 | 2:28.47 | 83850 | 94996
6 | 21:06.47 | 4:33.03 | 94997 | 115474
7 | 25:39.50 | 5:13.57 | 115475 | 139006
8 | 30:53.32 | 4:02.20 | 139007 | 157176
9 | 34:55.52 | 4:14.68 | 157177 | 176294
10 | 39:10.45 | 3:27.62 | 176295 | 191881


Range status and errors

Selected range

Filename Y:\Музыка\Rough Cutt\1985 Rough Cutt\Rough Cutt - Rough Cutt [WPCP-4026].wav

Peak level 100.0 %
Range quality 100.0 %
Copy CRC 9FD5F2D6
Copy OK

No errors occurred

End of status report


Состав:
Paul Shortino: Vocals
Amir Derakh: Guitar
Chris Hager: Guitar
Matt Thorr: Bass
Dave Alford: Drums

Narod
Фото

_________________
Витасу до Даймонда как Алсу до Руссоса | При переразмещении - спрашивать разрешение!!


Top
 Profile  
 
 
PostPosted: 24 Mar 2010 
Хиппей (support team)
User avatar
Joined: 30 Jul 2007
Posts: 116075
Lоcаtion: Киев (Kyiv, UA)
Age: 46
Name: Andrey
Ой, вроде у нас это было...

_________________


Top
 Profile E-mail  
 
 
PostPosted: 24 Mar 2010 
Хиппей (support team)
User avatar
Joined: 30 Jul 2007
Posts: 116075
Lоcаtion: Киев (Kyiv, UA)
Age: 46
Name: Andrey
Не, не тот "Головорез". Спасибо, Дим! :true:

_________________


Top
 Profile E-mail  
 
 
PostPosted: 24 Mar 2010 
Анатолий
User avatar
Joined: 18 Oct 2008
Posts: 3635
Lоcаtion: Армавир
Age: 42
Name: Анатолий
iezuit

Спасибо! :thanx:


Top
 Profile E-mail  
 
 
PostPosted: 26 Mar 2010 
Почётный металлург
User avatar
Joined: 15 Sep 2007
Posts: 4358
Lоcаtion: Хабаровск
Age: 59
Name: чуть выше
Спасибо, Дима, за лося!

_________________
Коль будешь людей ты ослами честить,
тебе человеком меж них не прослыть!
(Саади, персидский поэт, 13в.)


Top
 Profile  
 
 
PostPosted: 29 Mar 2010 
Работнечег
User avatar
Joined: 28 Aug 2007
Posts: 6086
Lоcаtion: г. Москва
Age: 30
Name: Дима
Спасибо! Очень нравится эта группа!


Top
 Profile E-mail  
 
 
PostPosted: 30 Mar 2010 
хард н хэвщик (support team)
User avatar
Joined: 02 Jun 2008
Posts: 16881
Lоcаtion: Н.Новгород
Age: 32
Name: Артем
http://batzbatz.com/hardrock/114111-rou ... sless.html
оперативно :true:


Top
 Profile  
 
 
PostPosted: 30 Mar 2010 
Персональный статус
Joined: 06 Oct 2007
Posts: 339
Да, с нашего форума не только это по инету летает.


Top
 Profile  
 
 
PostPosted: 30 Mar 2010 
ыыыы
User avatar
Joined: 17 May 2009
Posts: 952
Lоcаtion: Пушкино, МО
Age: 41
Name: Дмитрий
McKagan
Quote:
оперативно :true:

от ЖОПОШНИКИ!!!!!!!!
надо тоже ватермарки ставить

_________________
Витасу до Даймонда как Алсу до Руссоса | При переразмещении - спрашивать разрешение!!


Top
 Profile  
 
 
PostPosted: 30 Mar 2010 
Хиппей (support team)
User avatar
Joined: 30 Jul 2007
Posts: 116075
Lоcаtion: Киев (Kyiv, UA)
Age: 46
Name: Andrey
iezuit wrote:
надо тоже ватермарки ставить

Фи, не нужно. Вульгарно это.
Или, есть уж так хочется, ставьте свой ник или имэйл, только не адреса форумов и сайтов.

_________________


Top
 Profile E-mail  
 
Display posts from previous:  Sort by  
Post new topic Reply to topic  [ 10 posts ] 

All times are UTC + 3 hours


Who is online

Users browsing this forum: No registered users and 3 guests


You cannot post new topics in this forum
You cannot reply to topics in this forum
You cannot edit your posts in this forum
You cannot delete your posts in this forum
You cannot post attachments in this forum

Search for:
Яндекс.Метрика
Powered by phpBB © 2000, 2002, 2005, 2007 phpBB Group