\m/ 80's metal \m/

Информационно-аналитический форум "80 см пыли" (In Search We Trust) "У нас никто никуда не спешит"
Железнодорожная биржа - RailAgent
It is currently 24 Apr 2018

All times are UTC + 3 hours

Spoiler
Chat - temporary registration for foreign users (please leave your application here)







Post new topic Reply to topic  [ 8 posts ] 
Author Message
 
PostPosted: 21 Mar 2010 
труъ антисионист
User avatar
Joined: 01 Aug 2007
Posts: 4541
Lоcаtion: Откуда и большинство из нас
Age: 37
Name: Дядя Вова
Image
Year: 1991
Style: Thrash Metal
Country: Japan
Label: Skull Crusher
Format: Lossless (Flac Tracks+Cue+Log)
Size: 396 MB

========================================================================
Image

Line up:
Hisayoshi Hiraga - Vocals
Youichi - Guitar
Hiromi - Guitar
Gish - Bass
Kouichi - Drums

Tracklist:
1. Reincarnation of the Evil 08:13
2. Holocaust Eve 04:21
3. Caught in a Trap 06:06
4. Rest in Peace 08:27
5. Pigs of the Empire 04:30
6. Leather 04:07
7. Revenger 03:20
8. Stormtroopers 05:53
9. Field of Roses 07:30
**************************
Total playing time: 52:27

Log
Exact Audio Copy V0.99 prebeta 5 from 4. May 2009

EAC extraction logfile from 19. March 2010, 13:04

Rosenfeld / Pigs Of The Empire

Used drive : LITE-ON DVDRW SHW-1635S Adapter: 3 ID: 0

Read mode : Secure
Utilize accurate stream : Yes
Defeat audio cache : Yes
Make use of C2 pointers : No

Read offset correction : 6
Overread into Lead-In and Lead-Out : No
Fill up missing offset samples with silence : Yes
Delete leading and trailing silent blocks : No
Null samples used in CRC calculations : Yes
Used interface : Installed external ASPI interface
Gap handling : Appended to previous track

Used output format : User Defined Encoder
Selected bitrate : 320 kBit/s
Quality : High
Add ID3 tag : No
Command line compressor : C:\Program Files\Exact Audio Copy\Flac\flac.exe
Additional command line options : -V -8 -T "artist=%a" -T "title=%t" -T "album=%g" -T "date=%y" -T "tracknumber=%n" -T "genre=%m" %s


TOC of the extracted CD

Track | Start | Length | Start sector | End sector
---------------------------------------------------------
1 | 0:00.00 | 8:13.35 | 0 | 37009
2 | 8:13.35 | 4:21.60 | 37010 | 56644
3 | 12:35.20 | 6:06.60 | 56645 | 84154
4 | 18:42.05 | 8:28.00 | 84155 | 122254
5 | 27:10.05 | 4:30.07 | 122255 | 142511
6 | 31:40.12 | 4:07.33 | 142512 | 161069
7 | 35:47.45 | 3:20.30 | 161070 | 176099
8 | 39:08.00 | 5:53.60 | 176100 | 202634
9 | 45:01.60 | 7:30.20 | 202635 | 236404


Track 1

Filename C:\EACrips\Rosenfeld - 1991 - Pigs Of The Empire [FLAC]\01 - Reincarnation Of The Evil.wav

Pre-gap length 0:00:02.00

Peak level 81.5 %
Track quality 99.9 %
Test CRC A019D71C
Copy CRC A019D71C
Track not present in AccurateRip database
Copy OK

Track 2

Filename C:\EACrips\Rosenfeld - 1991 - Pigs Of The Empire [FLAC]\02 - Holocaust Eve.wav

Peak level 93.2 %
Track quality 100.0 %
Test CRC 57837BC3
Copy CRC 57837BC3
Track not present in AccurateRip database
Copy OK

Track 3

Filename C:\EACrips\Rosenfeld - 1991 - Pigs Of The Empire [FLAC]\03 - Caught In A Trap.wav

Peak level 80.8 %
Track quality 100.0 %
Test CRC 7F36C639
Copy CRC 7F36C639
Track not present in AccurateRip database
Copy OK

Track 4

Filename C:\EACrips\Rosenfeld - 1991 - Pigs Of The Empire [FLAC]\04 - Rest In Peace.wav

Peak level 75.7 %
Track quality 100.0 %
Test CRC AC8D6E88
Copy CRC AC8D6E88
Track not present in AccurateRip database
Copy OK

Track 5

Filename C:\EACrips\Rosenfeld - 1991 - Pigs Of The Empire [FLAC]\05 - Pigs Of The Empire.wav

Peak level 88.8 %
Track quality 100.0 %
Test CRC 2A15AB89
Copy CRC 2A15AB89
Track not present in AccurateRip database
Copy OK

Track 6

Filename C:\EACrips\Rosenfeld - 1991 - Pigs Of The Empire [FLAC]\06 - Leather.wav

Pre-gap length 0:00:03.02

Peak level 88.9 %
Track quality 100.0 %
Test CRC E7CE76EA
Copy CRC E7CE76EA
Track not present in AccurateRip database
Copy OK

Track 7

Filename C:\EACrips\Rosenfeld - 1991 - Pigs Of The Empire [FLAC]\07 - Revenger.wav

Pre-gap length 0:00:00.60

Peak level 94.2 %
Track quality 100.0 %
Test CRC 1702E85E
Copy CRC 1702E85E
Track not present in AccurateRip database
Copy OK

Track 8

Filename C:\EACrips\Rosenfeld - 1991 - Pigs Of The Empire [FLAC]\08 - Stormtroopers.wav

Pre-gap length 0:00:03.37

Peak level 100.0 %
Track quality 100.0 %
Test CRC 5F2D88FF
Copy CRC 5F2D88FF
Track not present in AccurateRip database
Copy OK

Track 9

Filename C:\EACrips\Rosenfeld - 1991 - Pigs Of The Empire [FLAC]\09 - Field Of Roses.wav

Pre-gap length 0:00:02.57

Peak level 94.0 %
Track quality 99.9 %
Test CRC 4A381496
Copy CRC 4A381496
Track not present in AccurateRip database
Copy OK


None of the tracks are present in the AccurateRip database

No errors occurred

End of status report


[youtube]<object width="480" height="385"><param name="movie" value="http://www.youtube.com/v/HFRU2WqUlYA&hl=ru_RU&fs=1&"></param><param name="allowFullScreen" value="true"></param><param name="allowscriptaccess" value="always"></param><embed src="http://www.youtube.com/v/HFRU2WqUlYA&hl=ru_RU&fs=1&" type="application/x-shockwave-flash" allowscriptaccess="always" allowfullscreen="true" width="480" height="385"></embed></object>[/youtube]

************************DOWNLOAD***************************************

Rosenfeld - 1991 - Pigs Of The Empire [FLAC].rar

_________________
Image
Image


Top
 Profile  
 
 
PostPosted: 21 Mar 2010 
А может смените мне статус?..
User avatar
Joined: 17 Jan 2008
Posts: 842
Lоcаtion: Пенза
Age: 40
Name: Денис
Ну вот за это спасибо....Уважил :true: :true: :true:


Top
 Profile  
 
 
PostPosted: 21 Mar 2010 
Thrasher
User avatar
Joined: 07 Oct 2007
Posts: 2755
Lоcаtion: Russia, Moscow
Age: 34
Name: Drunk & Evil
:shok: Круто, Вова! Спасибо!!! :true:

_________________
ВОДКА, БАБЫ И БЛЮЗ / 40° till death... :bodun:
One time we saw some hookers, but when we got closer, we realised it was Mötley Crüe. ©


Top
 Profile  
 
 
PostPosted: 21 Mar 2010 
Хиппей (support team)
User avatar
Joined: 30 Jul 2007
Posts: 102901
Lоcаtion: Киев (Kyiv, UA)
Age: 44
Name: Andrey
Труъ! Спасибо, Вовка :true:

_________________


Top
 Profile E-mail  
 
 
PostPosted: 21 Mar 2010 
труъ антисионист
User avatar
Joined: 01 Aug 2007
Posts: 4541
Lоcаtion: Откуда и большинство из нас
Age: 37
Name: Дядя Вова
Мне дико захотелось заиметь видео этого концерта.
[youtube]<object width="480" height="385"><param name="movie" value="http://www.youtube.com/v/A7L_wZFdfVA&hl=ru_RU&fs=1&"></param><param name="allowFullScreen" value="true"></param><param name="allowscriptaccess" value="always"></param><embed src="http://www.youtube.com/v/A7L_wZFdfVA&hl=ru_RU&fs=1&" type="application/x-shockwave-flash" allowscriptaccess="always" allowfullscreen="true" width="480" height="385"></embed></object>[/youtube]

_________________
Image
Image


Top
 Profile  
 
 
PostPosted: 21 Mar 2010 
Хиппей (support team)
User avatar
Joined: 30 Jul 2007
Posts: 102901
Lоcаtion: Киев (Kyiv, UA)
Age: 44
Name: Andrey
Красавцы! :true: :crazy:

_________________


Top
 Profile E-mail  
 
 
PostPosted: 30 Mar 2010 
Прокъмитолист
User avatar
Joined: 12 Aug 2007
Posts: 6370
Lоcаtion: Санктъ-Петербуркъ
Age: 50
Name: Олекъ
:thanx:

_________________
прокъметол - это музыко, от которово есть прок (ы)


Top
 Profile  
 
 
PostPosted: 31 Mar 2010 
metallpaparazzy
User avatar
Joined: 20 Dec 2009
Posts: 674
Lоcаtion: Днепропетровск
Age: 43
Name: Геннадий
:thanx:
интересно, скоко лака басисту пришлось израсходовать? :nunu:
выглядять как глемстеры закоренелые, а нарезают суровый трэшак... загадочные япошки :pardon:


Top
 Profile E-mail  
 
Display posts from previous:  Sort by  
Post new topic Reply to topic  [ 8 posts ] 

All times are UTC + 3 hours


Who is online

Users browsing this forum: No registered users and 2 guests


You cannot post new topics in this forum
You cannot reply to topics in this forum
You cannot edit your posts in this forum
You cannot delete your posts in this forum
You cannot post attachments in this forum

Search for:
Яндекс.Метрика
Powered by phpBB © 2000, 2002, 2005, 2007 phpBB Group