\m/ 80's metal \m/

Информационно-аналитический форум "80 см пыли" (In Search We Trust) "У нас никто никуда не спешит"
Me For You - http://me-4u.com
It is currently 26 Aug 2019

All times are UTC + 3 hours

Spoiler
Chat - temporary registration for foreign users (please leave your application here)







Post new topic Reply to topic  [ 20 posts ] 
Author Message
 
PostPosted: 17 Feb 2010 
10cm
Joined: 28 Feb 2009
Posts: 83
Lоcаtion: Москва
Age: 50
Name: Николай
Image
http://www.metal-archives.com/release.php?id=51004

Style: Melodic Heavy Metal
Country: USA
Format: flac+cue+log+scans
Size: 392 Mb

Traclist:
1. Fight For Your Life 04:08
2. Wasteland 04:28
3. Bad Boys Cut Loose 05:06
4. Run For Cover 04:15
5. Eyes Of Fire 05:00
6. You`re All I Need 06:18
7. Wasteland (live) 04:39
8. I`ve Got To Know (live) 04:35
9. Desert Of Tears (live) 04:26
10. Bad Boys Cut Loose (live) 05:01
11. Ruffian (live) 05:25
12. Run For Cover (live) 04:45

Total playing time 58:06

http://ifolder.ru/16454472
http://ifolder.ru/16454506
http://ifolder.ru/16454546
http://ifolder.ru/16454599
http://ifolder.ru/16454608

Здесь в320.size:139Mb

http://ifolder.ru/16454648
http://ifolder.ru/16454661

Дополнительные ссылки


log
Exact Audio Copy V0.99 prebeta 3 from 28. July 2007

Отчёт EAC об извлечении, выполненном 17. февраля 2010, 2:10

Ruffians / 85 & Live (Best of/Compilation, Hellion Records2004)

Дисковод: Optiarc DVD RW AD-7200S Adapter: 2 ID: 2

Режим чтения : Достоверность
Использование точного потока : Да
Отключение кэша аудио : Да
Использование указателей C2 : Нет

Коррекция смещения при чтении : 48
Способность читать области Lead-in и Lead-out : Нет
Заполнение пропущенных сэмплов тишиной : Да
Удаление блоков с тишиной в начале и конце : Нет
При вычислениях CRC использовались нулевые сэмплы : Да
Интерфейс : Встроенный Win32-интерфейс для Win NT/2000

Выходной формат : Внутренние WAV-операции
Формат сэмплов : 44.100 Гц; 16 бит; стерео


TOC извлечённого CD

Трек | Старт | Длительность | Начальный сектор | Конечный сектор
---------------------------------------------------------------------
1 | 0:00.00 | 4:08.15 | 0 | 18614
2 | 4:08.15 | 4:27.71 | 18615 | 38710
3 | 8:36.11 | 5:06.07 | 38711 | 61667
4 | 13:42.18 | 4:15.25 | 61668 | 80817
5 | 17:57.43 | 4:59.56 | 80818 | 103298
6 | 22:57.24 | 6:18.05 | 103299 | 131653
7 | 29:15.29 | 4:39.26 | 131654 | 152604
8 | 33:54.55 | 4:34.58 | 152605 | 173212
9 | 38:29.38 | 4:25.52 | 173213 | 193139
10 | 42:55.15 | 5:00.65 | 193140 | 215704
11 | 47:56.05 | 5:25.48 | 215705 | 240127
12 | 53:21.53 | 4:45.20 | 240128 | 261522


Характеристики диапазона извлечения и сообщения об ошибках

Выбранный диапазон

Имя файла C:\Downloads\Музыка\Ruffians - 85 & Live (Best of Compilation, Hellion Records2004).wav

Пиковый уровень 99.9 %
Качество диапазона 100.0 %
CRC копии D96B5C38
Копирование... OK

Ошибок не произошло

Конец отчёта


cue
REM DATE 1985
REM DISCID A60D9E0C
REM COMMENT "ExactAudioCopy v0.99pb3"
PERFORMER "Ruffians"
TITLE "85 & Live (Best of/Compilation, Hellion Records2004)"
FILE "Ruffians - 85 & Live (Best of Compilation, Hellion Records2004).wav" WAVE
TRACK 01 AUDIO
TITLE "Fight For Your Live"
PERFORMER "Ruffians"
INDEX 01 00:00:00
TRACK 02 AUDIO
TITLE "Wasteland"
PERFORMER "Ruffians"
INDEX 00 04:08:09
INDEX 01 04:08:15
TRACK 03 AUDIO
TITLE "Bad Boys Cult Loose"
PERFORMER "Ruffians"
INDEX 01 08:36:11
TRACK 04 AUDIO
TITLE "Run For Cover"
PERFORMER "Ruffians"
INDEX 01 13:42:18
TRACK 05 AUDIO
TITLE "Eyes Of Fire"
PERFORMER "Ruffians"
INDEX 00 17:57:39
INDEX 01 17:57:43
TRACK 06 AUDIO
TITLE "You're All I Need"
PERFORMER "Ruffians"
INDEX 00 22:57:16
INDEX 01 22:57:24
TRACK 07 AUDIO
TITLE "Wasteland (live)"
PERFORMER "Ruffians"
INDEX 00 29:15:23
INDEX 01 29:15:29
TRACK 08 AUDIO
TITLE "I've Got To Know (live)"
PERFORMER "Ruffians"
INDEX 01 33:54:55
TRACK 09 AUDIO
TITLE "Desert Of Tears (Live)"
PERFORMER "Ruffians"
INDEX 01 38:29:38
TRACK 10 AUDIO
TITLE "Bad Boys Cut Loose (Live)"
PERFORMER "Ruffians"
INDEX 00 42:55:09
INDEX 01 42:55:15
TRACK 11 AUDIO
TITLE "Ruffian (Live)"
PERFORMER "Ruffians"
INDEX 01 47:56:05
TRACK 12 AUDIO
TITLE "Run For Cover (Live)"
PERFORMER "Ruffians"
INDEX 01 53:21:53


Top
 Profile  
 
 
PostPosted: 18 Feb 2010 
Прокъмитолист
User avatar
Joined: 12 Aug 2007
Posts: 6593
Lоcаtion: Санктъ-Петербуркъ
Age: 51
Name: Олекъ
спасибо, утащил :thanx:

_________________
прокъметол - это музыко, от которово есть прок (ы)


Top
 Profile  
 
 
PostPosted: 18 Feb 2010 
А может смените мне статус?..
User avatar
Joined: 30 Aug 2009
Posts: 824
Lоcаtion: Ачинск, Красноярский край
Age: 33
Name: Стас
Спасибо, я тож взял :thanx:


Top
 Profile E-mail  
 
 
PostPosted: 19 Feb 2010 
Труъ
User avatar
Joined: 14 Jul 2009
Posts: 158
Lоcаtion: Hell Is Here
Age: 49
Name: Adriano
Thank You Very Much ! :thanx:


Top
 Profile E-mail  
 
 
PostPosted: 01 Jun 2010 
Хиппей (support team)
User avatar
Joined: 30 Jul 2007
Posts: 114094
Lоcаtion: Киев (Kyiv, UA)
Age: 46
Name: Andrey
Николай, спасибо! :thanx:

Крепкий хэви-мэтал с налётом эпичности. Ничего особенного и оригинального, но исполнено с душой. Хороший альбом. Звук вполне адекватен, как для 80-х. Заловые вещи вообще звучат прекрасно и даже местами лучше студийных (драйва ж больше). :meloman:

8/10

зы. Добавлен куй, лог и запасные ссылки.

_________________


Top
 Profile E-mail  
 
 
PostPosted: 01 Jun 2010 
Прокъмитолист
User avatar
Joined: 12 Aug 2007
Posts: 6593
Lоcаtion: Санктъ-Петербуркъ
Age: 51
Name: Олекъ
все ж интересно, заметит ли когданить одмин ошибку в названии темы? :oops:

_________________
прокъметол - это музыко, от которово есть прок (ы)


Top
 Profile  
 
 
PostPosted: 01 Jun 2010 
Хиппей (support team)
User avatar
Joined: 30 Jul 2007
Posts: 114094
Lоcаtion: Киев (Kyiv, UA)
Age: 46
Name: Andrey
spiralarch wrote:
ошибку в названии темы?

Самое смешное, что группа и так искалась :nunu: :nunu: :nunu: :nunu:
Спасибо за поправку :thanx:

_________________


Top
 Profile E-mail  
 
 
PostPosted: 02 Apr 2018 
Я набрал 1000 сообщений!
Joined: 21 Nov 2009
Posts: 1414
Lоcаtion: praga
Age: 49
Name: Сергей
Пожалуйста перезалейте.Ссылочки мертвые. :oops:


Top
 Profile E-mail  
 
 
PostPosted: 02 Apr 2018 
Хиппей (support team)
User avatar
Joined: 30 Jul 2007
Posts: 114094
Lоcаtion: Киев (Kyiv, UA)
Age: 46
Name: Andrey
:arrow: https://rutracker.org/forum/viewtopic.php?t=3928885 но без лайвничков :pardon:

Или нужен именно вариант переиздания?

_________________


Top
 Profile E-mail  
 
 
PostPosted: 02 Apr 2018 
Я набрал 1000 сообщений!
Joined: 21 Nov 2009
Posts: 1414
Lоcаtion: praga
Age: 49
Name: Сергей
Да Андрюш,хочется именно это издание.Думаю кто то же ранее скачивал . :fingal:


Top
 Profile E-mail  
 
 
PostPosted: 02 Apr 2018 
Хиппей (support team)
User avatar
Joined: 30 Jul 2007
Posts: 114094
Lоcаtion: Киев (Kyiv, UA)
Age: 46
Name: Andrey
Да. Серёг, я скачивал. Явно на второй винте лежит. Нужно подключать :pardon:

Тебе срочно?

_________________


Top
 Profile E-mail  
 
 
PostPosted: 02 Apr 2018 
Я набрал 1000 сообщений!
Joined: 21 Nov 2009
Posts: 1414
Lоcаtion: praga
Age: 49
Name: Сергей
Да нет Андрюх.Как будет у тебя время.Заранеее спасибо. :thanx:


Top
 Profile E-mail  
 
 
PostPosted: 02 Apr 2018 
Хиппей (support team)
User avatar
Joined: 30 Jul 2007
Posts: 114094
Lоcаtion: Киев (Kyiv, UA)
Age: 46
Name: Andrey
Ой.. ну это точно не скоро :(

Мне просто ещё интересно - зачем именно это переиздание нужно? :vic:

_________________


Top
 Profile E-mail  
 
 
PostPosted: 02 Apr 2018 
Хиппей (support team)
User avatar
Joined: 30 Jul 2007
Posts: 114094
Lоcаtion: Киев (Kyiv, UA)
Age: 46
Name: Andrey
Хотя, а ща попробую. Вспомнил, шо там и мне что-то нужно :oops:

_________________


Top
 Profile E-mail  
 
 
PostPosted: 02 Apr 2018 
Я набрал 1000 сообщений!
Joined: 21 Nov 2009
Posts: 1414
Lоcаtion: praga
Age: 49
Name: Сергей
Ливики тама симпатышные. :dance:


Top
 Profile E-mail  
 
 
PostPosted: 02 Apr 2018 
Хиппей (support team)
User avatar
Joined: 30 Jul 2007
Posts: 114094
Lоcаtion: Киев (Kyiv, UA)
Age: 46
Name: Andrey
Хмы, а не нашёл http://prntscr.com/iztq96 я на том винте тот альбом. Явно он у меня появился только в 2011-и году :fingal: http://prntscr.com/iztp9v

Отложим перезалив первичного файла тогда на неопределённый срок. Или мод кто ещё качал рип от Клауса :pardon:

_________________


Top
 Profile E-mail  
 
 
PostPosted: 02 Apr 2018 
Прокъмитолист
User avatar
Joined: 12 Aug 2007
Posts: 6593
Lоcаtion: Санктъ-Петербуркъ
Age: 51
Name: Олекъ
нашёл/перезалил: https://yadi.sk/mail/?hash=lNh5PC6Sb5en ... XUjLr6g%3D

_________________
прокъметол - это музыко, от которово есть прок (ы)


Top
 Profile  
 
 
PostPosted: 02 Apr 2018 
Хиппей (support team)
User avatar
Joined: 30 Jul 2007
Posts: 114094
Lоcаtion: Киев (Kyiv, UA)
Age: 46
Name: Andrey
:thanx:

mirror: Ur-Files l Uloz l Drop l Narod l M-Cloud

_________________


Top
 Profile E-mail  
 
 
PostPosted: 02 Apr 2018 
Я набрал 1000 сообщений!
Joined: 21 Nov 2009
Posts: 1414
Lоcаtion: praga
Age: 49
Name: Сергей
:thanx: :true:


Top
 Profile E-mail  
 
 
PostPosted: 21 Mar 2019 
Хиппей (support team)
User avatar
Joined: 30 Jul 2007
Posts: 114094
Lоcаtion: Киев (Kyiv, UA)
Age: 46
Name: Andrey
После нескольких лет прослушивания этого https://www.metal-archives.com/albums/R ... fians/5337 релиза всё же решил первые 6 студийных трэков забрать в личные топы - хороший альбом :meloman:

_________________


Top
 Profile E-mail  
 
Display posts from previous:  Sort by  
Post new topic Reply to topic  [ 20 posts ] 

All times are UTC + 3 hours


Who is online

Users browsing this forum: No registered users and 3 guests


You cannot post new topics in this forum
You cannot reply to topics in this forum
You cannot edit your posts in this forum
You cannot delete your posts in this forum
You cannot post attachments in this forum

Search for:
Яндекс.Метрика
Powered by phpBB © 2000, 2002, 2005, 2007 phpBB Group