\m/ 80's metal \m/

Информационно-аналитический форум "80 см пыли" (In Search We Trust) "У нас никто никуда не спешит"
Me For You - http://me-4u.com
It is currently 16 Dec 2019

All times are UTC + 3 hours

Spoiler
Chat - temporary registration for foreign users (please leave your application here)







Post new topic Reply to topic  [ 7 posts ] 
Author Message
 
PostPosted: 22 Dec 2009 
Хиппей (support team)
User avatar
Joined: 30 Jul 2007
Posts: 116151
Lоcаtion: Киев (Kyiv, UA)
Age: 46
Name: Andrey
Randy California - 1982 - Euro-American (reissued 1988) [wv]

    Image

Genre: Classic Rock
Location: USA
Format: wv+cue+log+covers
Size: 384 Mb


    1. Toy Guns - 03:01
    2. This Is The End - 02:28
    3. Mon Ami - 02:29
    4. Rude Reaction - 03:24
    5. Calling You - 03:14
    6. Wild Thing - 04:09
    7. Easy Love - 03:39
    8. Fearless Leader - 04:29
    9. Five In The Morning - 03:03
    10. Skull And Crossbones - 05:32
    11. Breakout - 02:31

    TPT: 37:59

Обыкновенный американский классик рок. Ничем особенным не выделяется, но цепляет. Как уже принято, вторая половина альбома заметно утяжеляется почти до хард-рока.

Скачано на просторах имула

Mega l Narod

log
Journal d'extraction EAC depuis 18. Avril 2006, 19:35 pour CD
Randy California / Euro-American

Lecteur utilisй : LITE-ON LTR-52327S Adapter: 0 ID: 1
Mode lecture : Explosif
Correction Offset combinй lecture/йcriture : 0
Lecture йtendue en Lead-In et Lead-Out : Non

Format de sortie utilisй : Routines WAV interne
44.100 Hz; 16 Bit; Stйrйo

Autres options :
Remplacer les samples manquants par du silence : Oui
Effacer les blocs silencieux situйs en dйbut et fin : Non
Interface Native Win32 pour Win NT & 2000


Propriйtйs Etats et Erreurs
Gammes sйlectionnйes
Nom fichier H:\euro-american.wav

problиme calcul 0:00:10

Niveau Max 78.8 %
CRC 8359FB6E
Copie terminйe

Pas d'erreur apparue

Fin du rapport d'йtat


cue
PERFORMER "Randy California"
TITLE "Euro-American"
FILE "euro-american.wav" WAVE
TRACK 01 AUDIO
TITLE "Toy Guns"
PERFORMER "Randy California"
INDEX 01 00:00:00
TRACK 02 AUDIO
TITLE "This is The End"
PERFORMER "Randy California"
INDEX 01 03:01:30
TRACK 03 AUDIO
TITLE "Mon Ami"
PERFORMER "Randy California"
INDEX 00 05:30:03
INDEX 01 05:30:05
TRACK 04 AUDIO
TITLE "Rude Reaction"
PERFORMER "Randy California"
INDEX 01 07:59:45
TRACK 05 AUDIO
TITLE "Calling You"
PERFORMER "Randy California"
INDEX 01 11:24:05
TRACK 06 AUDIO
TITLE "Wild Thing"
PERFORMER "Randy California"
INDEX 01 14:38:55
TRACK 07 AUDIO
TITLE "Easy Love"
PERFORMER "Randy California"
INDEX 01 18:47:72
TRACK 08 AUDIO
TITLE "Fearless Leader"
PERFORMER "Randy California"
INDEX 01 22:27:25
TRACK 09 AUDIO
TITLE "Five in The Morning"
PERFORMER "Randy California"
INDEX 01 26:57:15
TRACK 10 AUDIO
TITLE "Skull and Crossbones"
PERFORMER "Randy California"
INDEX 01 30:00:15
TRACK 11 AUDIO
TITLE "Breakout"
PERFORMER "Randy California"
INDEX 01 35:32:47

_________________


Top
 Profile E-mail  
 
 
PostPosted: 23 Dec 2009 
Почётный металлург
User avatar
Joined: 15 Sep 2007
Posts: 4358
Lоcаtion: Хабаровск
Age: 59
Name: чуть выше
Scatterbrain wrote:
утяжеляется почти до хард-рока

Спасибо, Андрюх! Мне интересно, ты слышал самый первый его сольник 72 года "Kaptain Kopter and the Fabulous Twirlybirds"? Если нет, то рекомендую. Отличнейшая вещь. В духе Хендрикса, но не совсем... все-таки Рэнди тоже фигура, хоть и не такого масштаба, как Джими. Кстати, по-моему если память не изменяет, у него там и ритм-секция хендриксовская (Реддинг с Митчеллом)

_________________
Коль будешь людей ты ослами честить,
тебе человеком меж них не прослыть!
(Саади, персидский поэт, 13в.)


Top
 Profile  
 
 
PostPosted: 23 Dec 2009 
Хиппей (support team)
User avatar
Joined: 30 Jul 2007
Posts: 116151
Lоcаtion: Киев (Kyiv, UA)
Age: 46
Name: Andrey
Пока нет, но уже начитался, что тот альбом самый лучший.

_________________


Top
 Profile E-mail  
 
 
PostPosted: 23 Dec 2009 
Почётный металлург
User avatar
Joined: 15 Sep 2007
Posts: 4358
Lоcаtion: Хабаровск
Age: 59
Name: чуть выше
Могу скинуть лося сюды, если хошь :oops:
Или mp3

_________________
Коль будешь людей ты ослами честить,
тебе человеком меж них не прослыть!
(Саади, персидский поэт, 13в.)


Top
 Profile  
 
 
PostPosted: 23 Dec 2009 
Хиппей (support team)
User avatar
Joined: 30 Jul 2007
Posts: 116151
Lоcаtion: Киев (Kyiv, UA)
Age: 46
Name: Andrey
О! От лося не откажусь :dance: Да и думаю, не я один.

_________________


Top
 Profile E-mail  
 
 
PostPosted: 11 Aug 2010 
Почётный металлург
User avatar
Joined: 15 Sep 2007
Posts: 4358
Lоcаtion: Хабаровск
Age: 59
Name: чуть выше
Sergey wrote:
Могу скинуть лося сюды

Scatterbrain wrote:
От лося не откажусь

Андрюх, ты мне хоть бо напомнил.... ;) Если б сюдой не залез, не вспомнил бо.

Вот здеся ссыль еще дышит:
http://rockanthology69.blogspot.com/200 ... r-and.html
:true:

_________________
Коль будешь людей ты ослами честить,
тебе человеком меж них не прослыть!
(Саади, персидский поэт, 13в.)


Top
 Profile  
 
 
PostPosted: 12 Aug 2010 
Хиппей (support team)
User avatar
Joined: 30 Jul 2007
Posts: 116151
Lоcаtion: Киев (Kyiv, UA)
Age: 46
Name: Andrey
:thanx:

А я и сам уже забыл :pardon:

_________________


Top
 Profile E-mail  
 
Display posts from previous:  Sort by  
Post new topic Reply to topic  [ 7 posts ] 

All times are UTC + 3 hours


Who is online

Users browsing this forum: No registered users and 3 guests


You cannot post new topics in this forum
You cannot reply to topics in this forum
You cannot edit your posts in this forum
You cannot delete your posts in this forum
You cannot post attachments in this forum

Search for:
Яндекс.Метрика
Powered by phpBB © 2000, 2002, 2005, 2007 phpBB Group