\m/ 80's metal \m/

Информационно-аналитический форум "80 см пыли" (In Search We Trust) "У нас никто никуда не спешит"
Железнодорожная биржа - RailAgent
It is currently 27 Apr 2018

All times are UTC + 3 hours

Spoiler
Chat - temporary registration for foreign users (please leave your application here)







Post new topic Reply to topic  [ 61 posts ]  Go to page 1, 2, 3, 4  Next
Author Message
 
PostPosted: 19 Dec 2009 
5-speed satisfactor
User avatar
Joined: 16 Feb 2009
Posts: 3503
Lоcаtion: New York, USA
Age: 40
Name: Leonid
10 лет назад мне записали этот редкостный CD. К сожалению не EAC-ом, а то ли Adaptec-ом, то ли Nero. Взяли просто ВАВы и тупо скинули на жесткий диск и затем на болванку. Наверняка, неправильные смещения. И соответственно никаких прегепов нет. Это все, что осталось. У меня есть переиздание, но на переиздании первый трек сильно урезан.

Ссылка чуть ниже :arrow: \

--Leonid

_________________
Death rules! Metal to all who oppose!


Top
 Profile  
 
 
PostPosted: 19 Dec 2009 
А может смените мне статус?..
User avatar
Joined: 17 Jan 2008
Posts: 842
Lоcаtion: Пенза
Age: 40
Name: Денис
:true:


Top
 Profile  
 
 
PostPosted: 19 Dec 2009 
Я набрал 1000 сообщений!
User avatar
Joined: 25 Dec 2008
Posts: 1545
Age: 42
Name: Павел
Спасибо,Леонид!И еще вопрос дилетанта:если записать диск Нерой,а не ЕАКом,он разве звучать будет хуже?


Top
 Profile  
 
 
PostPosted: 19 Dec 2009 
Хиппей (support team)
User avatar
Joined: 30 Jul 2007
Posts: 102964
Lоcаtion: Киев (Kyiv, UA)
Age: 44
Name: Andrey
Нормально звучать будет.

Спасибо за альбом :thanx:

_________________


Top
 Profile E-mail  
 
 
PostPosted: 19 Dec 2009 
Я набрал 1000 сообщений!
User avatar
Joined: 25 Dec 2008
Posts: 1545
Age: 42
Name: Павел
Так я просто не пойму,на что смещения влияют?Если звучит правильно,то не одна ли х...?Если рип,конечно,не собираются выкладывать на каком-нибудь ММТ или торрентс.ру.


Top
 Profile  
 
 
PostPosted: 19 Dec 2009 
дядя Миша
User avatar
Joined: 17 Oct 2008
Posts: 2901
Lоcаtion: USSR
Age: 55
Name: Khy
Слушать можно всё , хоть мр3 64 . И звучит нормально......


Top
 Profile  
 
 
PostPosted: 19 Dec 2009 
Я набрал 1000 сообщений!
User avatar
Joined: 25 Dec 2008
Posts: 1545
Age: 42
Name: Павел
VARVAAR wrote:
И звучит нормально

:shok:


Top
 Profile  
 
 
PostPosted: 19 Dec 2009 
дядя Миша
User avatar
Joined: 17 Oct 2008
Posts: 2901
Lоcаtion: USSR
Age: 55
Name: Khy
Не гоняй , качай , если нет eac рипа. Я вот мр3 не люблю , но если у меня есть альбом в мр3 или nero , то в eac , я его качать уже не буду. Только в редких случаях. Однако если делаешь рип сам , то следуй правилам таким EAC ( image +cue +log + all scans). Делай всё досканально.


Top
 Profile  
 
 
PostPosted: 19 Dec 2009 
Прокъмитолист
User avatar
Joined: 12 Aug 2007
Posts: 6371
Lоcаtion: Санктъ-Петербуркъ
Age: 50
Name: Олекъ
Паша, смещения могут повлиять на аудио составляющую, а могут и нет - все зависит от кривизны рук грабившего. неро может выкинуть оригинальные прегапы, а потом при записи вавов вставить свои - двухсекундные (посмотри темку про Quartz). в любом случае, за неимением лучшего варианта, сойдет и неровский.

Леня, спасибо :thanx:

_________________
прокъметол - это музыко, от которово есть прок (ы)


Top
 Profile  
 
 
PostPosted: 19 Dec 2009 
5-speed satisfactor
User avatar
Joined: 16 Feb 2009
Posts: 3503
Lоcаtion: New York, USA
Age: 40
Name: Leonid
Этот диск можно писать чем угодно, только прегепы выставляй 0. Здесь смещения уже нарушены.

А на что смещения влияют? Часто не на что в зависимости от размера смещения. Но в экстремальных случаях, часть звука (либо конец, либо начало) обрезано. Вернее спрятано за пределы видимости CD плеера. Например, у меня есть Iron Maiden - Powerslave CD Capitol CDP 7 46045-2. Диск родной, но по моему сделан либо BMG клубом, либо Columbia House клубом. Они были известны по на*бке потребителей и печатали компакты само. Так вот там такое смещение влево, что все CD плееры начинают играть этот диск после первого удара ударных. Т.е. первый удар не слышится. Единственно как я могу его услышать, это вставить диск и сразу отмотать назад на –2 секунды.

Хотелось бы, конечно, взять правильный рип. Но парень, у которого я брал этот Razor - Evil Invaders, переехал с концами и найти его я не могу.

_________________
Death rules! Metal to all who oppose!


Top
 Profile  
 
 
PostPosted: 03 Jun 2012 
5-speed satisfactor
User avatar
Joined: 16 Feb 2009
Posts: 3503
Lоcаtion: New York, USA
Age: 40
Name: Leonid
Опять таки от Наташи:

Image
Image

1. Nowhere Fast 04:26
2. Cross Me Fool 03:13
3. Legacy of Doom 03:22
4. Evil Invaders 03:49
5. Iron Hammer 03:38
6. Instant Death 02:57
7. Cut Throat 04:11
8. Speed Merchants 03:45
9. Tortured Skull 05:35
10. Thrashdance 03:19

Пока есть, качайте и зеркальте. А скан диска у меня есть, токо я не умею сюды вставлять. Я Андрею Санычу перешлю.

Razor


log
Exact Audio Copy V1.0 beta 3 from 29. August 2011

EAC extraction logfile from 31. May 2012, 20:40

Razor / Evil invaders

Used drive : TOSHIBA ODD-DVD SD-R5272 Adapter: 0 ID: 0

Read mode : Secure
Utilize accurate stream : Yes
Defeat audio cache : Yes
Make use of C2 pointers : No

Read offset correction : 116
Overread into Lead-In and Lead-Out : No
Fill up missing offset samples with silence : Yes
Delete leading and trailing silent blocks : No
Null samples used in CRC calculations : Yes
Used interface : Native Win32 interface for Win NT & 2000

Used output format : Internal WAV Routines
Sample format : 44.100 Hz; 16 Bit; Stereo


TOC of the extracted CD

Track | Start | Length | Start sector | End sector
---------------------------------------------------------
1 | 0:00.00 | 4:26.12 | 0 | 19961
2 | 4:26.12 | 3:13.33 | 19962 | 34469
3 | 7:39.45 | 3:22.27 | 34470 | 49646
4 | 11:01.72 | 3:48.60 | 49647 | 66806
5 | 14:50.57 | 3:38.08 | 66807 | 83164
6 | 18:28.65 | 2:56.40 | 83165 | 96404
7 | 21:25.30 | 4:11.30 | 96405 | 115259
8 | 25:36.60 | 3:44.50 | 115260 | 132109
9 | 29:21.35 | 5:34.57 | 132110 | 157216
10 | 34:56.17 | 3:19.13 | 157217 | 172154


Range status and errors

Selected range

Filename D:\Razor'85\Razor - Evil invaders.wav

Peak level 86.8 %
Extraction speed 15.2 X
Range quality 100.0 %
Copy CRC FFF40361
Copy OK

No errors occurred


AccurateRip summary

Track 1 accurately ripped (confidence 4) [DA1DB7D4] (AR v1)
Track 2 accurately ripped (confidence 4) [23710B77] (AR v1)
Track 3 accurately ripped (confidence 4) [120E46AB] (AR v1)
Track 4 accurately ripped (confidence 4) [3597799F] (AR v1)
Track 5 accurately ripped (confidence 4) [7DF881CF] (AR v1)
Track 6 accurately ripped (confidence 4) [D6A01185] (AR v1)
Track 7 accurately ripped (confidence 4) [FD9A7ED4] (AR v1)
Track 8 accurately ripped (confidence 4) [28F0B1F3] (AR v1)
Track 9 accurately ripped (confidence 4) [BAFDDA98] (AR v1)
Track 10 accurately ripped (confidence 4) [76097357] (AR v1)

All tracks accurately ripped

End of status report

==== Log checksum EF0815C98F17BCF5343E72BAB01D96FD5FD13BEB067BDB2D354DF09E3CA825F2 ====

cue
REM GENRE "Thrash metal"
REM DATE 1985
REM DISCID 8908F70A
REM COMMENT "ExactAudioCopy v1.0b3"
PERFORMER "Razor"
TITLE "Evil invaders"
FILE "Razor - Evil invaders.wav" WAVE
TRACK 01 AUDIO
TITLE "Nowhere fast"
PERFORMER "Razor"
INDEX 01 00:00:00
TRACK 02 AUDIO
TITLE "Cross me fool"
PERFORMER "Razor"
INDEX 01 04:26:12
TRACK 03 AUDIO
TITLE "Legacy of doom"
PERFORMER "Razor"
INDEX 01 07:39:45
TRACK 04 AUDIO
TITLE "Evil invaders"
PERFORMER "Razor"
INDEX 01 11:01:72
TRACK 05 AUDIO
TITLE "Iron hammer"
PERFORMER "Razor"
INDEX 01 14:50:57
TRACK 06 AUDIO
TITLE "Instant death"
PERFORMER "Razor"
INDEX 01 18:28:65
TRACK 07 AUDIO
TITLE "Cut throat"
PERFORMER "Razor"
INDEX 01 21:25:30
TRACK 08 AUDIO
TITLE "Speed merchants"
PERFORMER "Razor"
INDEX 01 25:36:60
TRACK 09 AUDIO
TITLE "Tortured skull"
PERFORMER "Razor"
INDEX 01 29:21:35
TRACK 10 AUDIO
TITLE "Thrashdance"
PERFORMER "Razor"
INDEX 01 34:56:17

_________________
Death rules! Metal to all who oppose!


Top
 Profile  
 
 
PostPosted: 04 Jun 2012 
Хиппей (support team)
User avatar
Joined: 30 Jul 2007
Posts: 102964
Lоcаtion: Киев (Kyiv, UA)
Age: 44
Name: Andrey
:thanx:

mirror: MultiUp l Narod

_________________


Top
 Profile E-mail  
 
 
PostPosted: 07 Jun 2012 
Анатолий
User avatar
Joined: 18 Oct 2008
Posts: 3004
Lоcаtion: Армавир
Age: 40
Name: Анатолий
metaleonid

Спасибо большое и Наташе безусловно тоже!!! :thanx: :true:


Top
 Profile E-mail  
 
 
PostPosted: 07 Jun 2012 
хард н хэвщик (support team)
User avatar
Joined: 02 Jun 2008
Posts: 16879
Lоcаtion: Н.Новгород
Age: 31
Name: Артем
а что за прайс киллерс такой? :vic:
http://www.musik-sammler.de/album/18777


Top
 Profile  
 
 
PostPosted: 07 Jun 2012 
хард н хэвщик (support team)
User avatar
Joined: 02 Jun 2008
Posts: 16879
Lоcаtion: Н.Новгород
Age: 31
Name: Артем
это чо такое? https://www.google.ru/?sesinv=1#hl=ru&n ... 20&bih=916
гугл сразу же добавил нашу страничку к себе :shok:


Top
 Profile  
 
 
PostPosted: 07 Jun 2012 
Прокъмитолист
User avatar
Joined: 12 Aug 2007
Posts: 6371
Lоcаtion: Санктъ-Петербуркъ
Age: 50
Name: Олекъ
McKagan wrote:
а что за прайс киллерс такой?

http://www.musik-sammler.de/media/19311

_________________
прокъметол - это музыко, от которово есть прок (ы)


Top
 Profile  
 
 
PostPosted: 07 Jun 2012 
хард н хэвщик (support team)
User avatar
Joined: 02 Jun 2008
Posts: 16879
Lоcаtion: Н.Новгород
Age: 31
Name: Артем
угу, вижу Erschienen in der Roadracer Price Killers-Serie.


Top
 Profile  
 
 
PostPosted: 08 Jun 2012 
5-speed satisfactor
User avatar
Joined: 16 Feb 2009
Posts: 3503
Lоcаtion: New York, USA
Age: 40
Name: Leonid
McKagan wrote:
а что за прайс киллерс такой? :vic:
http://www.musik-sammler.de/album/18777


Xy ясь. Это первопресс. Такой первопресс, что я достать не мог, когда диски собирал. У меня только 2 товарища имели это. Самый редкий диск. Наташа его купила за $250.

Переиздание 1997 - говно. Звук over compressed, да и первая песня обрезана. А Price Killers самое оно. Я скину сканы потом.

_________________
Death rules! Metal to all who oppose!


Top
 Profile  
 
 
PostPosted: 08 Jun 2012 
хард н хэвщик (support team)
User avatar
Joined: 02 Jun 2008
Posts: 16879
Lоcаtion: Н.Новгород
Age: 31
Name: Артем
я понял, что это самый дорогой диск
вопрос был не о том. на страничке musik sammler лейбл был указан как Roadrace Records, и только позже я обратил внимание внизу странички на слова price killers :umnik:


Top
 Profile  
 
 
PostPosted: 08 Jun 2012 
ТрэшЭрос
User avatar
Joined: 18 Jul 2011
Posts: 2296
Lоcаtion: Гулькевичи
Age: 43
Name: Александр
А у мя тады шо? :umnik:
Image

_________________
Thrash no trash!!!


Top
 Profile E-mail  
 
Display posts from previous:  Sort by  
Post new topic Reply to topic  [ 61 posts ]  Go to page 1, 2, 3, 4  Next

All times are UTC + 3 hours


Who is online

Users browsing this forum: No registered users and 1 guest


You cannot post new topics in this forum
You cannot reply to topics in this forum
You cannot edit your posts in this forum
You cannot delete your posts in this forum
You cannot post attachments in this forum

Search for:
Яндекс.Метрика
Powered by phpBB © 2000, 2002, 2005, 2007 phpBB Group