\m/ 80's metal \m/

Информационно-аналитический форум "80 см пыли" (In Search We Trust) "У нас никто никуда не спешит"
Me For You - http://me-4u.com
It is currently 15 Nov 2019

All times are UTC + 3 hours

Spoiler
Chat - temporary registration for foreign users (please leave your application here)







Post new topic Reply to topic  [ 3 posts ] 
Author Message
 
PostPosted: 08 Nov 2009 
Old Time Rock`n`Roll
User avatar
Joined: 23 Jun 2008
Posts: 3494
Lоcаtion: г.Ульяновск
Age: 41
Name: Константин
Riverdogs – Riverdogs (1990) – FLAC

Image

Year: 1990
Style: AOR
Country: USA
Format: FLAC (tracks) + log + cue + scans & mp3-320
Size: 306Mb/100 Mb

Tracklist
01. Whisper (4:41)
02. Toy Soldier (3:23)
03. Big House (4:03)
04. Holy War (4:22)
05. Baby Blue (4:36)
06. I Believe (4:21)
07. Water From The Moon (4:41)
08. Rain, Rain (4:34)
09. Spooky (4:52)
10. America (4:14)

TPT – 43:53

Line-Up
Nick Brophy - Bass, Vocals
Rob Lamothe - Vocals, Guitars, Keyboards
Vivian Campbell - Guitars, Vocals

Album Credits:
Produced: Michael Frondinelli & Riverdogs
Additional Production: Jeff Glixman
Mixed: Jeff Glixman
Mastered: Wally Traugott

Additional Players:
Mike Baird Drums
Allen DeSilva Drums # 10
Kevin Gilbert Keyboards # 10

Spectres
Image

Cue
REM GENRE Rock
REM DATE 1990
REM DISCID 8E0A480A
REM COMMENT "ExactAudioCopy v0.99pb4"
PERFORMER "Riverdogs"
TITLE "Riverdogs"
FILE "01 - Whisper.wav" WAVE
TRACK 01 AUDIO
TITLE "Whisper"
PERFORMER "Riverdogs"
INDEX 01 00:00:00
TRACK 02 AUDIO
TITLE "Toy Soldier"
PERFORMER "Riverdogs"
INDEX 00 04:40:32
FILE "02 - Toy Soldier.wav" WAVE
INDEX 01 00:00:00
FILE "03 - Big House.wav" WAVE
TRACK 03 AUDIO
TITLE "Big House"
PERFORMER "Riverdogs"
INDEX 01 00:00:00
TRACK 04 AUDIO
TITLE "Holy war"
PERFORMER "Riverdogs"
INDEX 00 04:02:22
FILE "04 - Holy war.wav" WAVE
INDEX 01 00:00:00
TRACK 05 AUDIO
TITLE "Baby Blue"
PERFORMER "Riverdogs"
INDEX 00 04:21:38
FILE "05 - Baby Blue.wav" WAVE
INDEX 01 00:00:00
TRACK 06 AUDIO
TITLE "I Believe"
PERFORMER "Riverdogs"
INDEX 00 04:34:05
FILE "06 - I Believe.wav" WAVE
INDEX 01 00:00:00
TRACK 07 AUDIO
TITLE "Water From The Moon"
PERFORMER "Riverdogs"
INDEX 00 04:21:35
FILE "07 - Water From The Moon.wav" WAVE
INDEX 01 00:00:00
TRACK 08 AUDIO
TITLE "Rain, Rain"
PERFORMER "Riverdogs"
INDEX 00 04:40:25
FILE "08 - Rain, Rain.wav" WAVE
INDEX 01 00:00:00
TRACK 09 AUDIO
TITLE "Spooky"
PERFORMER "Riverdogs"
INDEX 00 04:34:08
FILE "09 - Spooky.wav" WAVE
INDEX 01 00:00:00
TRACK 10 AUDIO
TITLE "America"
PERFORMER "Riverdogs"
INDEX 00 04:51:40
FILE "10 - America.wav" WAVE
INDEX 01 00:00:00


Log
Exact Audio Copy V0.99 prebeta 4 from 23. January 2008

EAC extraction logfile from 11. February 2009, 23:29

Riverdogs / Riverdogs

Used drive : ATAPI iHAS120 6 Adapter: 2 ID: 1

Read mode : Secure
Utilize accurate stream : Yes
Defeat audio cache : No
Make use of C2 pointers : No

Read offset correction : 6
Overread into Lead-In and Lead-Out : No
Fill up missing offset samples with silence : Yes
Delete leading and trailing silent blocks : No
Null samples used in CRC calculations : Yes
Used interface : Native Win32 interface for Win NT & 2000
Gap handling : Appended to previous track

Used output format : User Defined Encoder
Selected bitrate : 768 kBit/s
Quality : High
Add ID3 tag : No
Command line compressor : C:\Program Files (x86)\Exact Audio Copy\FLAC\FLAC.EXE
Additional command line options : -V -5 -T "artist=%a" -T "title=%t" -T "album=%g" -T "date=%y" -T "tracknumber=%n" -T "genre=%m" %s


TOC of the extracted CD

Track | Start | Length | Start sector | End sector
---------------------------------------------------------
1 | 0:00.00 | 4:41.07 | 0 | 21081
2 | 4:41.07 | 3:23.68 | 21082 | 36374
3 | 8:05.00 | 4:03.57 | 36375 | 54656
4 | 12:08.57 | 4:22.35 | 54657 | 74341
5 | 16:31.17 | 4:36.00 | 74342 | 95041
6 | 21:07.17 | 4:21.68 | 95042 | 114684
7 | 25:29.10 | 4:41.12 | 114685 | 135771
8 | 30:10.22 | 4:34.45 | 135772 | 156366
9 | 34:44.67 | 4:52.43 | 156367 | 178309
10 | 39:37.35 | 4:14.62 | 178310 | 197421


Track 1

Filename E:\Music In Progress\Riverdogs\Riverdogs\01 - Whisper.wav

Pre-gap length 0:00:02.00

Peak level 98.7 %
Track quality 99.9 %
Copy CRC C657E76A
Copy OK

Track 2

Filename E:\Music In Progress\Riverdogs\Riverdogs\02 - Toy Soldier.wav

Pre-gap length 0:00:00.66

Peak level 95.1 %
Track quality 100.0 %
Copy CRC 95D02E5A
Copy OK

Track 3

Filename E:\Music In Progress\Riverdogs\Riverdogs\03 - Big House.wav

Peak level 95.6 %
Track quality 99.9 %
Copy CRC 6658C939
Copy OK

Track 4

Filename E:\Music In Progress\Riverdogs\Riverdogs\04 - Holy war.wav

Pre-gap length 0:00:01.46

Peak level 90.1 %
Track quality 100.0 %
Copy CRC CFADE143
Copy OK

Track 5

Filename E:\Music In Progress\Riverdogs\Riverdogs\05 - Baby Blue.wav

Pre-gap length 0:00:00.96

Peak level 94.4 %
Track quality 99.9 %
Copy CRC DD634B86
Copy OK

Track 6

Filename E:\Music In Progress\Riverdogs\Riverdogs\06 - I Believe.wav

Pre-gap length 0:00:01.93

Peak level 94.9 %
Track quality 100.0 %
Copy CRC A8AA1542
Copy OK

Track 7

Filename E:\Music In Progress\Riverdogs\Riverdogs\07 - Water From The Moon.wav

Pre-gap length 0:00:00.44

Peak level 94.9 %
Track quality 100.0 %
Copy CRC 9FC13986
Copy OK

Track 8

Filename E:\Music In Progress\Riverdogs\Riverdogs\08 - Rain, Rain.wav

Pre-gap length 0:00:00.82

Peak level 96.9 %
Track quality 99.9 %
Copy CRC 434A6151
Copy OK

Track 9

Filename E:\Music In Progress\Riverdogs\Riverdogs\09 - Spooky.wav

Pre-gap length 0:00:00.49

Peak level 96.3 %
Track quality 99.9 %
Copy CRC 8F27717F
Copy OK

Track 10

Filename E:\Music In Progress\Riverdogs\Riverdogs\10 - America.wav

Pre-gap length 0:00:01.04

Peak level 96.0 %
Track quality 100.0 %
Copy CRC 6C3ED182
Copy OK

No errors occurred

End of status report


FLAC
narod-FLAC


mp3-320
megaupload-320

Автор релиза - nuclearpoweredpenguin
АОР/мелодик хард с мягкими блюзовыми вкраплениями. На этом альбоме в состав группы входил Вивиан Кемпбелл, участник Dio – Whitesnake – Def Leppard, как раз для любителей блюзового АОРа.


Image


Top
 Profile  
 
 
PostPosted: 08 Nov 2009 
труъ антисионист
User avatar
Joined: 01 Aug 2007
Posts: 4544
Lоcаtion: Откуда и большинство из нас
Age: 38
Name: Дядя Вова
Раз тут Вивиен засветился, то качну!

_________________
Image
Image


Top
 Profile  
 
 
PostPosted: 09 Nov 2009 
Почётный металлург
User avatar
Joined: 15 Sep 2007
Posts: 4358
Lоcаtion: Хабаровск
Age: 59
Name: чуть выше
oldrocker wrote:
для любителей блюзового АОРа

Послушаю, шо это за смесь такая. :thanx:

_________________
Коль будешь людей ты ослами честить,
тебе человеком меж них не прослыть!
(Саади, персидский поэт, 13в.)


Top
 Profile  
 
Display posts from previous:  Sort by  
Post new topic Reply to topic  [ 3 posts ] 

All times are UTC + 3 hours


Who is online

Users browsing this forum: No registered users and 3 guests


You cannot post new topics in this forum
You cannot reply to topics in this forum
You cannot edit your posts in this forum
You cannot delete your posts in this forum
You cannot post attachments in this forum

Search for:
Яндекс.Метрика
Powered by phpBB © 2000, 2002, 2005, 2007 phpBB Group