\m/ 80's metal \m/

Информационно-аналитический форум "80 см пыли" (In Search We Trust) "У нас никто никуда не спешит"
Железнодорожная биржа - RailAgent
It is currently 24 Apr 2018

All times are UTC + 3 hours

Spoiler
Chat - temporary registration for foreign users (please leave your application here)







Post new topic Reply to topic  [ 3 posts ] 
Author Message
 
PostPosted: 27 Oct 2009 
Генеральный thrasher
User avatar
Joined: 03 Oct 2008
Posts: 3370
Lоcаtion: Ханты-Мансийский АО
Age: 43
Name: Сергей
Image

Year: 2006
Style: Hardcore/Crossover
Country: Brasil
Format: Flac+Cue+Log
Size: 224Mb

Tracklist:
1. Pedofilia Santa 02:05
2. Covardia de Plantao 02:00
3. Expresso da Escravidao 02:44
4. O Equivocado 02:43
5. Otario Involuntario 01:52
6. H.I.D.H. 03:54
7. Testemunhas do Apocalipse 02:16
8. Ao Pe da Forca 02:19
9. DNA da Pilantragem 03:37
10. PMs de Sata 02:15
11. Quem te Viu... 02:34
12. Lucidez 01:51

Cue
REM GENRE Hardcore
REM DATE 2006
REM DISCID 84071D0C
REM COMMENT "ExactAudioCopy v0.99pb4"
PERFORMER "Ratos de Porгo"
TITLE "Homem Inimigo do Homem"
FILE "Ratos de Porгo - Homem Inimigo do Homem.flac" WAVE
TRACK 01 AUDIO
TITLE "Pedofilia Santa"
PERFORMER "Ratos de Porгo"
INDEX 01 00:00:00
TRACK 02 AUDIO
TITLE "Covardia de Plantгo"
PERFORMER "Ratos de Porгo"
INDEX 00 02:05:62
INDEX 01 02:05:63
TRACK 03 AUDIO
TITLE "Expresso da Escravidгo"
PERFORMER "Ratos de Porгo"
INDEX 00 04:06:70
INDEX 01 04:06:71
TRACK 04 AUDIO
TITLE "O Equivocado"
PERFORMER "Ratos de Porгo"
INDEX 00 06:51:63
INDEX 01 06:51:64
TRACK 05 AUDIO
TITLE "Otбrio Involuntбrio"
PERFORMER "Ratos de Porгo"
INDEX 00 09:35:37
INDEX 01 09:35:38
TRACK 06 AUDIO
TITLE "H.I.D.H."
PERFORMER "Ratos de Porгo"
INDEX 00 11:28:30
INDEX 01 11:28:31
TRACK 07 AUDIO
TITLE "Testemunhas do Apocalipse"
PERFORMER "Ratos de Porгo"
INDEX 00 15:23:23
INDEX 01 15:23:24
TRACK 08 AUDIO
TITLE "Ao Pй da Forca"
PERFORMER "Ratos de Porгo"
INDEX 01 17:40:39
TRACK 09 AUDIO
TITLE "DNA da Pilantragem"
PERFORMER "Ratos de Porгo"
INDEX 00 20:00:44
INDEX 01 20:00:45
TRACK 10 AUDIO
TITLE "PMs de Satг"
PERFORMER "Ratos de Porгo"
INDEX 00 23:38:73
INDEX 01 23:38:74
TRACK 11 AUDIO
TITLE "Quem Te Viu..."
PERFORMER "Ratos de Porгo"
INDEX 00 25:54:28
INDEX 01 25:54:29
TRACK 12 AUDIO
TITLE "Lucidez"
PERFORMER "Ratos de Porгo"
INDEX 00 28:29:46
INDEX 01 28:29:47


Log
Exact Audio Copy V0.99 prebeta 4 from 23. January 2008

Отчёт EAC об извлечении, выполненном 6. октября 2009, 10:40

Ratos de Porгo / Homem Inimigo do Homem

Дисковод: ATAPI DVD A DH20A4P Adapter: 0 ID: 1

Режим чтения : Достоверность
Использование точного потока : Да
Отключение кэша аудио : Да
Использование указателей C2 : Нет

Коррекция смещения при чтении : 6
Способность читать области Lead-in и Lead-out : Нет
Заполнение пропущенных сэмплов тишиной : Да
Удаление блоков с тишиной в начале и конце : Нет
При вычислениях CRC использовались нулевые сэмплы : Нет
Интерфейс : Встроенный Win32-интерфейс для Win NT/2000

Выходной формат : Пользовательский кодировщик
Выбранный битрейт : 768 kBit/s
Качество : Высокий
Добавление ID3-тэга : Нет
Утилита сжатия : C:\Program Files\Exact Audio Copy\FLAC\FLAC.EXE
Дополнительные параметры : -6 -V -T "ARTIST=%a" -T "TITLE=%t" -T "ALBUM=%g" -T "DATE=%y" -T "TRACKNUMBER=%n" -T "GENRE=%m" -T "COMMENT=%e" %s -o %d


TOC извлечённого CD

Трек | Старт | Длительность | Начальный сектор | Конечный сектор
---------------------------------------------------------------------
1 | 0:00.00 | 2:05.63 | 0 | 9437
2 | 2:05.63 | 2:01.08 | 9438 | 18520
3 | 4:06.71 | 2:44.68 | 18521 | 30888
4 | 6:51.64 | 2:43.49 | 30889 | 43162
5 | 9:35.38 | 1:52.68 | 43163 | 51630
6 | 11:28.31 | 3:54.68 | 51631 | 69248
7 | 15:23.24 | 2:17.15 | 69249 | 79538
8 | 17:40.39 | 2:20.06 | 79539 | 90044
9 | 20:00.45 | 3:38.29 | 90045 | 106423
10 | 23:38.74 | 2:15.30 | 106424 | 116578
11 | 25:54.29 | 2:35.18 | 116579 | 128221
12 | 28:29.47 | 1:52.04 | 128222 | 136625


Характеристики диапазона извлечения и сообщения об ошибках

Выбранный диапазон

Имя файла F:\Лоси\Ratos de Porгo - Homem Inimigo do Homem.wav

Пиковый уровень 100.0 %
Качество диапазона 99.9 %
CRC копии 36D7E030
Копирование... OK

Ошибок не произошло


AccurateRip: сводка

Трек 1 нет в базе данных
Трек 2 нет в базе данных
Трек 3 нет в базе данных
Трек 4 нет в базе данных
Трек 5 нет в базе данных
Трек 6 нет в базе данных
Трек 7 нет в базе данных
Трек 8 нет в базе данных
Трек 9 нет в базе данных
Трек 10 нет в базе данных
Трек 11 нет в базе данных
Трек 12 нет в базе данных

Ни одного трека нет в базе AccurateRip

Конец отчёта


Megaupload


Top
 Profile  
 
 
PostPosted: 30 Oct 2009 
Хиппей (support team)
User avatar
Joined: 30 Jul 2007
Posts: 102901
Lоcаtion: Киев (Kyiv, UA)
Age: 44
Name: Andrey
:true:
mirror: MultiUp l Narod

_________________


Top
 Profile E-mail  
 
 
PostPosted: 27 Jul 2011 
ТрэшЭрос
User avatar
Joined: 18 Jul 2011
Posts: 2296
Lоcаtion: Гулькевичи
Age: 43
Name: Александр
спс :true:

_________________
Thrash no trash!!!


Top
 Profile E-mail  
 
Display posts from previous:  Sort by  
Post new topic Reply to topic  [ 3 posts ] 

All times are UTC + 3 hours


Who is online

Users browsing this forum: No registered users and 2 guests


You cannot post new topics in this forum
You cannot reply to topics in this forum
You cannot edit your posts in this forum
You cannot delete your posts in this forum
You cannot post attachments in this forum

Search for:
Яндекс.Метрика
Powered by phpBB © 2000, 2002, 2005, 2007 phpBB Group