\m/ 80's metal \m/

Информационно-аналитический форум "80 см пыли" (In Search We Trust) "У нас никто никуда не спешит"
Me For You - http://me-4u.com
It is currently 25 Aug 2019

All times are UTC + 3 hours

Spoiler
Chat - temporary registration for foreign users (please leave your application here)







Post new topic Reply to topic  [ 5 posts ] 
Author Message
 
PostPosted: 09 Sep 2009 
Генеральный thrasher
User avatar
Joined: 03 Oct 2008
Posts: 3719
Lоcаtion: Ханты-Мансийский АО
Age: 44
Name: Сергей
Image

Группа:Ratos de Porao
Альбом:Brasil
Страна:Бразилия
Год:1989 (2007 Re-Issue)
Стиль:Thrash/Crossover
Лейбл:Metal Mind
Формат:Flac+Cue+Log
Размер:251Mb

Line-Up:
Gordo — vocal
Jaba — bass
Jao — guitar
Spaghetti — drums

Tracklist:
01.Amazonia Never More
02.Backwards
03.Aids, Pop Repression
04.Law of Silence
05.S.O.S. Broken Country
06.Gil Coma
07.Drink Til You Die
08.Suicidal Heroin
09.Children Without Future
10.Nationalist Farce
11.Traitor
12.Bloody Pigs
13.Animal Life
14.The End
15.Military Machine
16.Land of Carnival
17.Will I Receive My Heritage
18.Novo Vietnan (Live-Bonus)
19.Agressao/Repressao (Live-Bonus)
20.Poluicao Atomica (Live-Bonus)

Log
Exact Audio Copy V0.99 prebeta 4 from 23. January 2008

Отчёт EAC об извлечении, выполненном 9. сентября 2009, 8:52

Ratos De Porao / Brasil

Дисковод: ATAPI DVD A DH20A4P Adapter: 0 ID: 1

Режим чтения : Достоверность
Использование точного потока : Да
Отключение кэша аудио : Да
Использование указателей C2 : Нет

Коррекция смещения при чтении : 6
Способность читать области Lead-in и Lead-out : Нет
Заполнение пропущенных сэмплов тишиной : Да
Удаление блоков с тишиной в начале и конце : Нет
При вычислениях CRC использовались нулевые сэмплы : Нет
Интерфейс : Встроенный Win32-интерфейс для Win NT/2000

Выходной формат : Пользовательский кодировщик
Выбранный битрейт : 768 kBit/s
Качество : Высокий
Добавление ID3-тэга : Нет
Утилита сжатия : C:\Program Files\Exact Audio Copy\FLAC\FLAC.EXE
Дополнительные параметры : -6 -V -T "ARTIST=%a" -T "TITLE=%t" -T "ALBUM=%g" -T "DATE=%y" -T "TRACKNUMBER=%n" -T "GENRE=%m" -T "COMMENT=%e" %s -o %d


TOC извлечённого CD

Трек | Старт | Длительность | Начальный сектор | Конечный сектор
---------------------------------------------------------------------
1 | 0:00.00 | 1:56.22 | 0 | 8721
2 | 1:56.22 | 1:35.43 | 8722 | 15889
3 | 3:31.65 | 1:17.57 | 15890 | 21721
4 | 4:49.47 | 2:17.43 | 21722 | 32039
5 | 7:07.15 | 1:27.72 | 32040 | 38636
6 | 8:35.12 | 0:43.63 | 38637 | 41924
7 | 9:19.00 | 2:20.22 | 41925 | 52446
8 | 11:39.22 | 2:15.05 | 52447 | 62576
9 | 13:54.27 | 1:41.35 | 62577 | 70186
10 | 15:35.62 | 2:30.43 | 70187 | 81479
11 | 18:06.30 | 0:51.65 | 81480 | 85369
12 | 18:58.20 | 1:51.35 | 85370 | 93729
13 | 20:49.55 | 1:28.52 | 93730 | 100381
14 | 22:18.32 | 0:59.25 | 100382 | 104831
15 | 23:17.57 | 1:57.08 | 104832 | 113614
16 | 25:14.65 | 2:16.22 | 113615 | 123836
17 | 27:31.12 | 1:53.42 | 123837 | 132353
18 | 29:24.54 | 1:23.13 | 132354 | 138591
19 | 30:47.67 | 1:23.54 | 138592 | 144870
20 | 32:11.46 | 0:41.49 | 144871 | 147994
21 | 35:25.20 | 0:18.25 | 159395 | 160769


Характеристики диапазона извлечения и сообщения об ошибках

Выбранный диапазон

Имя файла D:\Lossless Music\Ratos De Porao - Brasil.wav

Пиковый уровень 99.6 %
Качество диапазона 100.0 %
CRC копии F46DA4BA
Копирование... OK

Ошибок не произошло



Конец отчёта


Cue
REM GENRE "Thrash, Hardcore"
REM DATE 2007
REM DISCID 13085F15
REM COMMENT "ExactAudioCopy v0.99pb4"
PERFORMER "Ratos De Porao"
TITLE "Brasil"
FILE "Ratos De Porao - Brasil.flac" WAVE
TRACK 01 AUDIO
TITLE "Amazonia Never More"
PERFORMER "Ratos De Porao"
FLAGS DCP
INDEX 01 00:00:00
INDEX 02 01:56:22
TRACK 02 AUDIO
TITLE "Backwards"
PERFORMER "Ratos De Porao"
FLAGS DCP
INDEX 01 01:56:22
TRACK 03 AUDIO
TITLE "Aids, Pop Repression"
PERFORMER "Ratos De Porao"
FLAGS DCP
INDEX 01 03:31:65
INDEX 02 04:49:46
TRACK 04 AUDIO
TITLE "Law Of Silence"
PERFORMER "Ratos De Porao"
FLAGS DCP
INDEX 01 04:49:47
INDEX 02 07:07:14
TRACK 05 AUDIO
TITLE "SOS Broken Country"
PERFORMER "Ratos De Porao"
FLAGS DCP
INDEX 01 07:07:15
TRACK 06 AUDIO
TITLE "Gil Coma"
PERFORMER "Ratos De Porao"
FLAGS DCP
INDEX 01 08:35:12
INDEX 02 09:18:74
TRACK 07 AUDIO
TITLE "Drink Til You Die"
PERFORMER "Ratos De Porao"
FLAGS DCP
INDEX 01 09:19:00
INDEX 02 11:39:21
TRACK 08 AUDIO
TITLE "Suicidal Heroin"
PERFORMER "Ratos De Porao"
FLAGS DCP
INDEX 01 11:39:22
TRACK 09 AUDIO
TITLE "Children Without Future"
PERFORMER "Ratos De Porao"
FLAGS DCP
INDEX 01 13:54:27
INDEX 02 15:35:62
TRACK 10 AUDIO
TITLE "Nationalist Farce"
PERFORMER "Ratos De Porao"
FLAGS DCP
INDEX 01 15:35:62
INDEX 02 18:06:29
TRACK 11 AUDIO
TITLE "Traitor"
PERFORMER "Ratos De Porao"
FLAGS DCP
INDEX 01 18:06:30
INDEX 02 18:58:20
TRACK 12 AUDIO
TITLE "Bloody Pigs"
PERFORMER "Ratos De Porao"
FLAGS DCP
INDEX 01 18:58:20
TRACK 13 AUDIO
TITLE "Animal Life"
PERFORMER "Ratos De Porao"
FLAGS DCP
INDEX 01 20:49:55
INDEX 02 22:18:31
TRACK 14 AUDIO
TITLE "The End"
PERFORMER "Ratos De Porao"
FLAGS DCP
INDEX 01 22:18:32
INDEX 02 23:17:56
TRACK 15 AUDIO
TITLE "Military Machine"
PERFORMER "Ratos De Porao"
FLAGS DCP
INDEX 01 23:17:57
TRACK 16 AUDIO
TITLE "Land Of Carnival"
PERFORMER "Ratos De Porao"
FLAGS DCP
INDEX 01 25:14:65
INDEX 02 27:31:11
TRACK 17 AUDIO
TITLE "Will I Receive My Heritage"
PERFORMER "Ratos De Porao"
FLAGS DCP
INDEX 01 27:31:12
TRACK 18 AUDIO
TITLE "Novo Vietnan (live)"
PERFORMER "Ratos De Porao"
FLAGS DCP
INDEX 01 29:24:54
TRACK 19 AUDIO
TITLE "Agressao / Repressao (live)"
PERFORMER "Ratos De Porao"
FLAGS DCP
INDEX 01 30:47:67
TRACK 20 AUDIO
TITLE "Poluicao Atomica (live)"
PERFORMER "Ratos De Porao"
FLAGS DCP
INDEX 01 32:11:46



Megaupload


Top
 Profile  
 
 
PostPosted: 09 Sep 2009 
Хиппей (support team)
User avatar
Joined: 30 Jul 2007
Posts: 114095
Lоcаtion: Киев (Kyiv, UA)
Age: 46
Name: Andrey
Spasibo! :true:
mirror: MultiUp l Narod

_________________


Top
 Profile E-mail  
 
 
PostPosted: 09 Sep 2009 
HAMMER
User avatar
Joined: 16 May 2009
Posts: 5488
Lоcаtion: Тверь
Age: 46
Name: Александр
:thanx:


Top
 Profile E-mail  
 
 
PostPosted: 09 Sep 2009 
труъ антисионист
User avatar
Joined: 01 Aug 2007
Posts: 4544
Lоcаtion: Откуда и большинство из нас
Age: 38
Name: Дядя Вова
Спасибо :true:

_________________
Image
Image


Top
 Profile  
 
 
PostPosted: 22 Jul 2011 
ТрэшЭрос
User avatar
Joined: 18 Jul 2011
Posts: 2304
Lоcаtion: Гулькевичи
Age: 44
Name: Александр
agradecimento!!! :thanx:

_________________
Thrash no trash!!!


Top
 Profile E-mail  
 
Display posts from previous:  Sort by  
Post new topic Reply to topic  [ 5 posts ] 

All times are UTC + 3 hours


Who is online

Users browsing this forum: No registered users and 2 guests


You cannot post new topics in this forum
You cannot reply to topics in this forum
You cannot edit your posts in this forum
You cannot delete your posts in this forum
You cannot post attachments in this forum

Search for:
Яндекс.Метрика
Powered by phpBB © 2000, 2002, 2005, 2007 phpBB Group