\m/ 80's metal \m/

Информационно-аналитический форум "80 см пыли" (In Search We Trust) "У нас никто никуда не спешит"
Me For You - http://me-4u.com
It is currently 23 Aug 2019

All times are UTC + 3 hours

Spoiler
Chat - temporary registration for foreign users (please leave your application here)







Post new topic Reply to topic  [ 18 posts ] 
Author Message
 
PostPosted: 28 Aug 2009 
Генеральный thrasher
User avatar
Joined: 03 Oct 2008
Posts: 3717
Lоcаtion: Ханты-Мансийский АО
Age: 44
Name: Сергей
Image

Группа:Ratos de Porao
Альбом:Anarkophobia
Страна:Бразилия
Год:1990 (2007 Re-Issue)
Стиль:Thrash/Crossover
Лейбл:Metal Mind
Формат:Flac+Cue+Log
Размер:320Mb

Line-Up:
Gordo — vocals
Jaba — bass
Joгo — guitars
Spaghetti — drums

Tracklist:
1. Counting the Dead 04:49
2. Death Of The King 03:32
3. Born To Suffer 03:11
4. Rise And Fall 02:05
5. Mad Society 03:57
6. (All I Need Is) Hatred 04:57
7. Anarkophobia 03:42
8. Universal Church 03:39
9. Commando (Ramones cover) 01:43
10.TV Slave 04:23
11. Amazonia Nunca Mais (live 1992)
12. Commando (live 1992)
13. Obrigando a Obedecer (live 2000)

Log
Exact Audio Copy V0.99 prebeta 4 from 23. January 2008

Отчёт EAC об извлечении, выполненном 28. августа 2009, 10:59

Ratos De Porao / Anarkophobia

Дисковод: ATAPI DVD A DH20A4P Adapter: 0 ID: 1

Режим чтения : Достоверность
Использование точного потока : Да
Отключение кэша аудио : Да
Использование указателей C2 : Нет

Коррекция смещения при чтении : 6
Способность читать области Lead-in и Lead-out : Нет
Заполнение пропущенных сэмплов тишиной : Да
Удаление блоков с тишиной в начале и конце : Нет
При вычислениях CRC использовались нулевые сэмплы : Нет
Интерфейс : Встроенный Win32-интерфейс для Win NT/2000

Выходной формат : Пользовательский кодировщик
Выбранный битрейт : 768 kBit/s
Качество : Высокий
Добавление ID3-тэга : Нет
Утилита сжатия : C:\Program Files\Exact Audio Copy\FLAC\FLAC.EXE
Дополнительные параметры : -6 -V -T "ARTIST=%a" -T "TITLE=%t" -T "ALBUM=%g" -T "DATE=%y" -T "TRACKNUMBER=%n" -T "GENRE=%m" -T "COMMENT=%e" %s -o %d


TOC извлечённого CD

Трек | Старт | Длительность | Начальный сектор | Конечный сектор
---------------------------------------------------------------------
1 | 0:00.00 | 4:51.47 | 0 | 21871
2 | 4:51.47 | 3:33.45 | 21872 | 37891
3 | 8:25.17 | 3:12.48 | 37892 | 52339
4 | 11:37.65 | 2:05.42 | 52340 | 61756
5 | 13:43.32 | 3:59.25 | 61757 | 79706
6 | 17:42.57 | 4:59.68 | 79707 | 102199
7 | 22:42.50 | 3:43.42 | 102200 | 118966
8 | 26:26.17 | 3:40.63 | 118967 | 135529
9 | 30:07.05 | 1:43.47 | 135530 | 143301
10 | 31:50.52 | 4:21.74 | 143302 | 162950
11 | 36:12.51 | 1:59.32 | 162951 | 171907
12 | 38:12.08 | 1:30.28 | 171908 | 178685
13 | 39:42.36 | 1:59.07 | 178686 | 187617
14 | 44:13.43 | 0:15.02 | 199018 | 200144


Характеристики диапазона извлечения и сообщения об ошибках

Выбранный диапазон

Имя файла D:\Lossless Music\Ratos De Porao - Anarkophobia.wav

Пиковый уровень 99.2 %
Качество диапазона 100.0 %
CRC копии C44F562F
Копирование... OK

Ошибок не произошло


Конец отчёта


Cue
REM GENRE Metal
REM DATE 1990
REM DISCID D30A6C0E
REM COMMENT "ExactAudioCopy v0.99pb4"
PERFORMER "Ratos De Porao"
TITLE "Anarkophobia"
FILE "Ratos De Porao - Anarkophobia.flac" WAVE
TRACK 01 AUDIO
TITLE "Counting The Dead"
PERFORMER "Ratos De Porao"
FLAGS DCP
INDEX 01 00:00:00
INDEX 02 04:51:47
TRACK 02 AUDIO
TITLE "Death Of The King"
PERFORMER "Ratos De Porao"
FLAGS DCP
INDEX 01 04:51:47
TRACK 03 AUDIO
TITLE "Born To Suffer"
PERFORMER "Ratos De Porao"
FLAGS DCP
INDEX 01 08:25:17
TRACK 04 AUDIO
TITLE "Rise And Fall"
PERFORMER "Ratos De Porao"
FLAGS DCP
INDEX 01 11:37:65
TRACK 05 AUDIO
TITLE "Mad Society"
PERFORMER "Ratos De Porao"
FLAGS DCP
INDEX 01 13:43:32
INDEX 02 17:42:56
TRACK 06 AUDIO
TITLE "(All I Need Is) Hatred"
PERFORMER "Ratos De Porao"
FLAGS DCP
INDEX 01 17:42:57
TRACK 07 AUDIO
TITLE "Anarkophobia"
PERFORMER "Ratos De Porao"
FLAGS DCP
INDEX 01 22:42:50
TRACK 08 AUDIO
TITLE "Universal Church"
PERFORMER "Ratos De Porao"
FLAGS DCP
INDEX 01 26:26:17
INDEX 02 30:07:04
TRACK 09 AUDIO
TITLE "Commando (Ramones Cover)"
PERFORMER "Ratos De Porao"
FLAGS DCP
INDEX 01 30:07:05
INDEX 02 31:50:51
TRACK 10 AUDIO
TITLE "TV Slave"
PERFORMER "Ratos De Porao"
FLAGS DCP
INDEX 01 31:50:52
TRACK 11 AUDIO
TITLE "Amazonia Nunca Mais (Live 21-02-1992) (Bonus Track)"
PERFORMER "Ratos De Porao"
FLAGS DCP
INDEX 01 36:12:51
TRACK 12 AUDIO
TITLE "Commando (Live 21-02-1992) (Bonus Track)"
PERFORMER "Ratos De Porao"
FLAGS DCP
INDEX 01 38:12:08
TRACK 13 AUDIO
TITLE "Obrigando A Obedecer (Live 24-06-2000) (Bonus Track)"
PERFORMER "Ratos De Porao"
FLAGS DCP
INDEX 01 39:42:36


Альбом - http://www.megaupload.com/?d=WGHGX63D
Сканы - http://www.megaupload.com/?d=29R4JPFB


Top
 Profile  
 
 
PostPosted: 28 Aug 2009 
Генеральный thrasher
User avatar
Joined: 03 Oct 2008
Posts: 3717
Lоcаtion: Ханты-Мансийский АО
Age: 44
Name: Сергей
Приветствую всех,друзья!Вернулся из отпуска с трофеями.Делюсь с вами.На очереди "Just Another Crime In Massacreland" и "Brasil" (также с бонусами).


Top
 Profile  
 
 
PostPosted: 28 Aug 2009 
Хиппей (support team)
User avatar
Joined: 30 Jul 2007
Posts: 114068
Lоcаtion: Киев (Kyiv, UA)
Age: 46
Name: Andrey
:true:

_________________


Top
 Profile E-mail  
 
 
PostPosted: 28 Aug 2009 
труъ антисионист
User avatar
Joined: 01 Aug 2007
Posts: 4544
Lоcаtion: Откуда и большинство из нас
Age: 38
Name: Дядя Вова
Спасибо, пожалуй обновлю лося!

_________________
Image
Image


Top
 Profile  
 
 
PostPosted: 28 Aug 2009 
Работнечег
User avatar
Joined: 28 Aug 2007
Posts: 5954
Lоcаtion: г. Москва
Age: 30
Name: Дима
А меня они как-то не впечатлили, правда давненько я их слушал.


Top
 Profile E-mail  
 
 
PostPosted: 28 Aug 2009 
Хиппей (support team)
User avatar
Joined: 30 Jul 2007
Posts: 114068
Lоcаtion: Киев (Kyiv, UA)
Age: 46
Name: Andrey
Ну у группы своеобразный такой хардкор, местами воспринимается тяжеловато.
После 90-х они вообще стали играть непонятно что, но ранние альбомы все ж хороши :meloman:

_________________


Top
 Profile E-mail  
 
 
PostPosted: 28 Aug 2009 
Генеральный thrasher
User avatar
Joined: 03 Oct 2008
Posts: 3717
Lоcаtion: Ханты-Мансийский АО
Age: 44
Name: Сергей
На мой субьективный взгляд "Brasil" и "Anarkophobia" не уступают Сепультуре того же периода.И представляют собой в большей степени трэш нежели hardcore.Затем действительно пошел скос в hardcore,иногда доходя до тяжести Napalm Death.


Top
 Profile  
 
 
PostPosted: 28 Aug 2009 
Alive Again
User avatar
Joined: 17 Dec 2008
Posts: 4747
Lоcаtion: Курск Воронеж Оскол
Age: 45
Name: Дмитрий
А мне они нравятся, особенно "Just Another Crime In Massacreland".
в лосях есть:
1989 Brasil
1991 Anarkophobia
1994 Just Another Crime In Massacreland
1995 Feijoada Acidente? - International
1997 Carniceria Tropical
2000 Guerra Civil Canibal


Top
 Profile E-mail  
 
 
PostPosted: 28 Aug 2009 
Генеральный thrasher
User avatar
Joined: 03 Oct 2008
Posts: 3717
Lоcаtion: Ханты-Мансийский АО
Age: 44
Name: Сергей
dr_rockter wrote:
А мне они нравятся, особенно "Just Another Crime In Massacreland".
в лосях есть:
1989 Brasil
1991 Anarkophobia
1994 Just Another Crime In Massacreland
1995 Feijoada Acidente? - International
1997 Carniceria Tropical
2000 Guerra Civil Canibal


Дим,последние три не зальешь?


Top
 Profile  
 
 
PostPosted: 29 Aug 2009 
Alive Again
User avatar
Joined: 17 Dec 2008
Posts: 4747
Lоcаtion: Курск Воронеж Оскол
Age: 45
Name: Дмитрий
Залью, я у себя в доке их выложу, подключайся.
http://aliveagain.moole.ru/


Top
 Profile E-mail  
 
 
PostPosted: 07 Sep 2009 
труъ антисионист
User avatar
Joined: 01 Aug 2007
Posts: 4544
Lоcаtion: Откуда и большинство из нас
Age: 38
Name: Дядя Вова
Блин, ремастер звучит просто великолепно, к чертям я снёс первопресного лося! :true:

_________________
Image
Image


Top
 Profile  
 
 
PostPosted: 08 Sep 2009 
Генеральный thrasher
User avatar
Joined: 03 Oct 2008
Posts: 3717
Lоcаtion: Ханты-Мансийский АО
Age: 44
Name: Сергей
Заливать "Brasil" и "Just Another Crime In Massacreland"?


Top
 Profile  
 
 
PostPosted: 08 Sep 2009 
Хиппей (support team)
User avatar
Joined: 30 Jul 2007
Posts: 114068
Lоcаtion: Киев (Kyiv, UA)
Age: 46
Name: Andrey
thorbeorn wrote:
Заливать

Ага :true:

_________________


Top
 Profile E-mail  
 
 
PostPosted: 08 Sep 2009 
труъ антисионист
User avatar
Joined: 01 Aug 2007
Posts: 4544
Lоcаtion: Откуда и большинство из нас
Age: 38
Name: Дядя Вова
thorbeorn wrote:
Заливать "Brasil" и "Just Another Crime In Massacreland"?

Если эти диски так же прошли ремастеринг, как этот, то лей :true:

_________________
Image
Image


Top
 Profile  
 
 
PostPosted: 23 Jul 2011 
ТрэшЭрос
User avatar
Joined: 18 Jul 2011
Posts: 2304
Lоcаtion: Гулькевичи
Age: 44
Name: Александр
Спасиб балшой! :thanx:
:true:

_________________
Thrash no trash!!!


Top
 Profile E-mail  
 
 
PostPosted: 23 Jul 2011 
Хиппей (support team)
User avatar
Joined: 30 Jul 2007
Posts: 114068
Lоcаtion: Киев (Kyiv, UA)
Age: 46
Name: Andrey
dr_rockter wrote:
Залью, я у себя в доке их выложу, подключайся.
http://aliveagain.moole.ru

Дим, не заливал? Или как раз эти альбомы попали под "падение Мули"? :fingal:

_________________


Top
 Profile E-mail  
 
 
PostPosted: 23 Jul 2011 
Генеральный thrasher
User avatar
Joined: 03 Oct 2008
Posts: 3717
Lоcаtion: Ханты-Мансийский АО
Age: 44
Name: Сергей
Андрюх,я могу Feijoada Acidente? - International и Guerra Civil Canibal со своих дисков лосей поместить на форум...Если надо,конечно.


Top
 Profile  
 
 
PostPosted: 23 Jul 2011 
Хиппей (support team)
User avatar
Joined: 30 Jul 2007
Posts: 114068
Lоcаtion: Киев (Kyiv, UA)
Age: 46
Name: Andrey
Серёг, а давай :true: :thanx:
Пусть будут все в одной кучке :dance:

_________________


Top
 Profile E-mail  
 
Display posts from previous:  Sort by  
Post new topic Reply to topic  [ 18 posts ] 

All times are UTC + 3 hours


Who is online

Users browsing this forum: No registered users and 1 guest


You cannot post new topics in this forum
You cannot reply to topics in this forum
You cannot edit your posts in this forum
You cannot delete your posts in this forum
You cannot post attachments in this forum

Search for:
Яндекс.Метрика
Powered by phpBB © 2000, 2002, 2005, 2007 phpBB Group