\m/ 80's metal \m/

Информационно-аналитический форум "80 см пыли" (In Search We Trust) "У нас никто никуда не спешит"
Me For You - http://me-4u.com
It is currently 26 Aug 2019

All times are UTC + 3 hours

Spoiler
Chat - temporary registration for foreign users (please leave your application here)







Post new topic Reply to topic  [ 14 posts ] 
Author Message
 
PostPosted: 20 Aug 2009 
хард н хэвщик (support team)
User avatar
Joined: 02 Jun 2008
Posts: 16881
Lоcаtion: Н.Новгород
Age: 32
Name: Артем
Image Image

Rajas (Japan) - 1984 - S/T [EP] | FLAC | Vinyl

Tracklist:
a1. On The Real Fire
a2. Straight Fighter
b1. My Love
b2. Rock With You

некоторая деза инфорация по группе здесь: http://www.metal-archives.com/band.php?id=69304

лось: Narod
mp3: viewtopic.php?f=150&t=5396

p.s. спасибо inxxane с сайта http://lnx.xradicaldreamers.net/xboards


Last edited by McKagan on 03 Sep 2009, edited 1 time in total.

Top
 Profile  
 
 
PostPosted: 20 Aug 2009 
А может смените мне статус?..
Joined: 03 Jul 2009
Posts: 880
Lоcаtion: Serbia
Name: Laki
Thanks. I have a cd version of this but with the different cover. Great upload!


Top
 Profile E-mail  
 
 
PostPosted: 20 Aug 2009 
хард н хэвщик (support team)
User avatar
Joined: 02 Jun 2008
Posts: 16881
Lоcаtion: Н.Новгород
Age: 32
Name: Артем
glory11 wrote:
I have a cd version of this but with the different cover

Hi glory11 (what's your name btw?)
Can you post here CD version ?


Top
 Profile  
 
 
PostPosted: 20 Aug 2009 
А может смените мне статус?..
Joined: 03 Jul 2009
Posts: 880
Lоcаtion: Serbia
Name: Laki
Rajas - 1984 - Rajas (reissued 2003) [ape]

Attachment:
Cover.jpg
Cover.jpg [ 59.52 KiB | Viewed 126 times ]


Here's the link. It's the official CD re-release from 2003 [lossless].

http://www.megaupload.com/?d=77FU05EU or http://www.multiupload.com/QNYCY1P2HV

log
Exact Audio Copy V0.99 prebeta 4 from 23. January 2008

EAC extraction logfile from 20. August 2009, 21:06

Rajas / Rajas

Used drive : PIONEER DVD-RW DVR-212 Adapter: 3 ID: 0

Read mode : Secure
Utilize accurate stream : Yes
Defeat audio cache : Yes
Make use of C2 pointers : No

Read offset correction : 48
Overread into Lead-In and Lead-Out : No
Fill up missing offset samples with silence : Yes
Delete leading and trailing silent blocks : No
Null samples used in CRC calculations : Yes
Used interface : Installed external ASPI interface

Used output format : Internal WAV Routines
Sample format : 44.100 Hz; 16 Bit; Stereo


TOC of the extracted CD

Track | Start | Length | Start sector | End sector
---------------------------------------------------------
1 | 0:00.00 | 4:17.00 | 0 | 19274
2 | 4:17.00 | 4:22.42 | 19275 | 38966
3 | 8:39.42 | 5:11.63 | 38967 | 62354
4 | 13:51.30 | 5:43.40 | 62355 | 88119


Range status and errors

Selected range

Filename D:\Rajas\1984 - Rajas\Rajas - Rajas.wav

Peak level 98.8 %
Range quality 100.0 %
Copy CRC 8DB55FBD
Copy OK

No errors occurred

End of status report


cue
REM GENRE "Japanese Heavy Metal"
REM DATE 1984
REM DISCID 28049604
REM COMMENT "ExactAudioCopy v0.99pb4"
PERFORMER "Rajas"
TITLE "Rajas"
FILE "Rajas - Rajas.wav" WAVE
TRACK 01 AUDIO
TITLE "ON THE REAL FIRE"
PERFORMER "Rajas"
INDEX 01 00:00:00
TRACK 02 AUDIO
TITLE "STRAIGHT FIGHTER"
PERFORMER "Rajas"
INDEX 00 04:14:65
INDEX 01 04:17:00
TRACK 03 AUDIO
TITLE "MY LOVE"
PERFORMER "Rajas"
INDEX 00 08:39:33
INDEX 01 08:39:42
TRACK 04 AUDIO
TITLE "ROCK WITH YOU"
PERFORMER "Rajas"
INDEX 00 13:48:19
INDEX 01 13:51:30


Last edited by glory11 on 21 Aug 2009, edited 1 time in total.

Top
 Profile E-mail  
 
 
PostPosted: 21 Aug 2009 
Почётный металлург
User avatar
Joined: 15 Sep 2007
Posts: 4358
Lоcаtion: Хабаровск
Age: 59
Name: чуть выше
Артемка, ты не спрашивал, перезаливают ли на азиядракон?
http://nnm.ru/search?q=rajas&in=tags

_________________
Коль будешь людей ты ослами честить,
тебе человеком меж них не прослыть!
(Саади, персидский поэт, 13в.)


Top
 Profile  
 
 
PostPosted: 21 Aug 2009 
хард н хэвщик (support team)
User avatar
Joined: 02 Jun 2008
Posts: 16881
Lоcаtion: Н.Новгород
Age: 32
Name: Артем
Сереж, щас я перезалью


Top
 Profile  
 
 
PostPosted: 21 Aug 2009 
Хиппей (support team)
User avatar
Joined: 30 Jul 2007
Posts: 114095
Lоcаtion: Киев (Kyiv, UA)
Age: 46
Name: Andrey
McKagan
glory11

Спасибо за обе версии :thanx:

_________________


Top
 Profile E-mail  
 
 
PostPosted: 21 Aug 2009 
хард н хэвщик (support team)
User avatar
Joined: 02 Jun 2008
Posts: 16881
Lоcаtion: Н.Новгород
Age: 32
Name: Артем
glory11 wrote:
Here's the link. It's the official CD re-release from 2003 [lossless].

http://www.megaupload.com/?d=77FU05EU

спасибо :true:


Top
 Profile  
 
 
PostPosted: 03 Sep 2009 
Дежурный по КУПу
User avatar
Joined: 17 Aug 2007
Posts: 5871
Age: 51
Name: Ге
Спасибо за лосика :thanx:

_________________
http://jp-mania.ru/
http://jp-tourdates.ucoz.ru/


Top
 Profile  
 
 
PostPosted: 13 Oct 2010 
Хиппей (support team)
User avatar
Joined: 30 Jul 2007
Posts: 114095
Lоcаtion: Киев (Kyiv, UA)
Age: 46
Name: Andrey
McKagan wrote:
Rajas (Japan) - 1984 - S/T [EP] | FLAC | Vinyl


Технические данные:
Рип с малость запиленного винила, но очень качественный, спасибо еще раз за lossless! :thanx:
На третьем трэке игла подпрыгнула - отметка 01:26

Музыка:
Достаточно посредственный и серый Traditional Heavy с невыразительным женским вокалом (как обычно - японцы и японки предпочитают петь на своем собстсвенном "наречии", смешав японский язык и якобы английский - то есть, абракадабра, но припев обязательно на английском). В общем, группа ниже среднего. Ничего особенного из себя не представляет. Проходняк. Одна из сотен подобных команд третьего эшелона.
Могу выделить лишь работу лидер-гитариста.

5/10

_________________


Top
 Profile E-mail  
 
 
PostPosted: 09 Jan 2011 
Хиппей (support team)
User avatar
Joined: 30 Jul 2007
Posts: 114095
Lоcаtion: Киев (Kyiv, UA)
Age: 46
Name: Andrey
McKagan wrote:

По ходу - кырдык форуму...

_________________


Top
 Profile E-mail  
 
 
PostPosted: 09 Jan 2011 
Хиппей (support team)
User avatar
Joined: 30 Jul 2007
Posts: 114095
Lоcаtion: Киев (Kyiv, UA)
Age: 46
Name: Andrey
Прослушал и рип с диска - отличненько по качеству :true:
Только не пойму, почему нет 5-го трэка - или его там и не должно быть?
Картинок в архиве не оказалось (только мелкий фронт - иной, чуть выше щас вставлю в пост от Лаки). В логе и куе 4 трэка.

_________________


Top
 Profile E-mail  
 
 
PostPosted: 10 Jan 2011 
хард н хэвщик (support team)
User avatar
Joined: 02 Jun 2008
Posts: 16881
Lоcаtion: Н.Новгород
Age: 32
Name: Артем
Scatterbrain wrote:
почему нет 5-го трэка
на задничке винила указаны только 4 :vic:


Top
 Profile  
 
 
PostPosted: 10 Jan 2011 
Хиппей (support team)
User avatar
Joined: 30 Jul 2007
Posts: 114095
Lоcаtion: Киев (Kyiv, UA)
Age: 46
Name: Andrey
McKagan wrote:
на задничке винила указаны только 4 :vic:

Угу, но о CD-переиздании... Где-то седня видел, что там уже было пять. Хотя, фиг его знает мож за день уже и группы спутал :oops:
Кстати, насколько обожаю винил-рипы, но вот рип с диска звучит просто офигенно. Поэтому пришлось даже два раза в удовольствие переслушать альбом. Оценку подыму до 6 баллов из 10 :dance:

_________________


Top
 Profile E-mail  
 
Display posts from previous:  Sort by  
Post new topic Reply to topic  [ 14 posts ] 

All times are UTC + 3 hours


Who is online

Users browsing this forum: No registered users and 1 guest


You cannot post new topics in this forum
You cannot reply to topics in this forum
You cannot edit your posts in this forum
You cannot delete your posts in this forum
You cannot post attachments in this forum

Search for:
Яндекс.Метрика
Powered by phpBB © 2000, 2002, 2005, 2007 phpBB Group