\m/ 80's metal \m/

Информационно-аналитический форум "80 см пыли" (In Search We Trust) "У нас никто никуда не спешит"
Me For You - http://me-4u.com
It is currently 14 Nov 2019

All times are UTC + 3 hours

Spoiler
Chat - temporary registration for foreign users (please leave your application here)







Post new topic Reply to topic  [ 4 posts ] 
Author Message
 
PostPosted: 30 Apr 2009 
труъ антисионист
User avatar
Joined: 01 Aug 2007
Posts: 4544
Lоcаtion: Откуда и большинство из нас
Age: 38
Name: Дядя Вова
Image
Группа: Riot
Альбом: Inishmore
Год: 1998
Лейбл: Metal Blade
Стиль: Heavy / Power
Страна: USA
Формат: Lossless (Image Flac + Log + Cue)
Размер: 385 Mb

***********************************************************************************************

Line Up:

Line-up:
Vocals: Mike DiMeo
Guitars: Mark Reale
Guitars: Mike Flyntz
Bass: Pete Perez
Drums: Bobby Jarzombek



Tracks:
01. Black Water (2:42)
02. Angel Eyes (4:27)
03. Liberty (5:08)
04. Kings Are Falling (4:33)
05. The Man (3:52)
06. Watching the Signs (4:35)
07. Should I Run (4:40)
08. Cry for the Dying (4:39)
09. Turning the Hands of Time (5:08)
10. Gypsy (5:20)
11. Inishmore (Forsaken Heart) (1:45)
12. Inishmore (4:32)


log
Quote:
Exact Audio Copy V0.99 prebeta 3 from 28. July 2007

Отчёт EAC об извлечении, выполненном 8. августа 2008, 22:47

Riot / Inishmore

Дисковод: SONY CD-RW CRX230ED Adapter: 0 ID: 1

Режим чтения : Достоверность
Использование точного потока : Да
Отключение кэша аудио : Да
Использование указателей C2 : Нет

Коррекция смещения при чтении : 6
Способность читать области Lead-in и Lead-out : Нет
Заполнение пропущенных сэмплов тишиной : Да
Удаление блоков с тишиной в начале и конце : Нет
При вычислениях CRC использовались нулевые сэмплы : Нет
Интерфейс : Встроенный Win32-интерфейс для Win NT/2000

Выходной формат : Пользовательский кодировщик
Выбранный битрейт : 768 kBit/s
Качество : Высокий
Добавление ID3-тэга : Нет
Утилита сжатия : C:\Program Files\Exact Audio Copy\FLAC\FLAC.EXE
Дополнительные параметры : -6 -V -T "ARTIST=%a" -T "TITLE=%t" -T "ALBUM=%g" -T "DATE=%y" -T "TRACKNUMBER=%n" -T "GENRE=%m" -T "COMMENT=%e" %s -o %d


TOC извлечённого CD

Трек | Старт | Длительность | Начальный сектор | Конечный сектор
---------------------------------------------------------------------
1 | 0:00.00 | 2:42.07 | 0 | 12156
2 | 2:42.07 | 4:27.28 | 12157 | 32209
3 | 7:09.35 | 5:08.35 | 32210 | 55344
4 | 12:17.70 | 4:32.42 | 55345 | 75786
5 | 16:50.37 | 3:52.20 | 75787 | 93206
6 | 20:42.57 | 4:34.43 | 93207 | 113799
7 | 25:17.25 | 4:40.27 | 113800 | 134826
8 | 29:57.52 | 4:38.55 | 134827 | 155731
9 | 34:36.32 | 5:07.60 | 155732 | 178816
10 | 39:44.17 | 5:20.28 | 178817 | 202844
11 | 45:04.45 | 1:44.47 | 202845 | 210691
12 | 46:49.17 | 4:32.30 | 210692 | 231121


Характеристики диапазона извлечения и сообщения об ошибках

Выбранный диапазон

Имя файла D:\Temp\Riot - Inishmore.wav

Пиковый уровень 97.9 %
Качество диапазона 100.0 %
CRC копии E33F80C2
Копирование... OK

Ошибок не произошло

Конец отчёта

Рип не Мой, откуда брал, не помню.
===================================DOWNLOAD========================================
Narod
1998 Inishmore.rar
Mega
1998 Inishmore.rar

_________________
Image
Image


Top
 Profile  
 
 
PostPosted: 30 Apr 2009 
Хиппей (support team)
User avatar
Joined: 30 Jul 2007
Posts: 115523
Lоcаtion: Киев (Kyiv, UA)
Age: 46
Name: Andrey
Спасибо, Вовка :thanx:


Top
 Profile E-mail  
 
 
PostPosted: 30 Apr 2009 
Труъ
User avatar
Joined: 19 Mar 2009
Posts: 162
Lоcаtion: Калужский край
Age: 45
Name: Alexander
мой любимый :oops:
спасибо :thanx:


Top
 Profile  
 
 
PostPosted: 02 May 2009 
.
Joined: 01 Mar 2009
Posts: 162
Age: 37
Name: .
с этого альбома началось мое знакомство с группой, очень понравился альбомчик! Спасибо. заберу. а то был тока на кассете


Top
 Profile  
 
Display posts from previous:  Sort by  
Post new topic Reply to topic  [ 4 posts ] 

All times are UTC + 3 hours


Who is online

Users browsing this forum: No registered users and 1 guest


You cannot post new topics in this forum
You cannot reply to topics in this forum
You cannot edit your posts in this forum
You cannot delete your posts in this forum
You cannot post attachments in this forum

Search for:
Яндекс.Метрика
Powered by phpBB © 2000, 2002, 2005, 2007 phpBB Group