\m/ 80's metal \m/

Информационно-аналитический форум "80 см пыли" (In Search We Trust) "У нас никто никуда не спешит"
Железнодорожная биржа - RailAgent
It is currently 26 Apr 2018

All times are UTC + 3 hours

Spoiler
Chat - temporary registration for foreign users (please leave your application here)







Post new topic Reply to topic  [ 18 posts ] 
Author Message
 
PostPosted: 20 Mar 2009 
Труъ
User avatar
Joined: 12 Aug 2008
Posts: 160
Lоcаtion: Днепропетровск
Age: 53
Name: Геннадий
Ищу в любом качестве

REWARD - Break Out - 1988

Personnel
Claus Fuehrer Vocals
Guenther Plaschg Guitar
Felix Ortner Bass
Roland Egger Drums

Tracks
1. Lightnin'
2. Stranger
3. Break Out
4. Fantasy
5. Radio
6. Fire In L.A.
7. Out On The Run
8. Lonely Nights
9. Evil Dreams
10. Serenade Of The Night

Austria


Top
 Profile E-mail  
 
 
PostPosted: 20 Mar 2009 
спирт 100%
User avatar
Joined: 22 Sep 2008
Posts: 4185
Age: 46
Name: Саня
Reward -1988- breakout - 192kbps

Image

http://ifolder.ru/11150063


Top
 Profile  
 
 
PostPosted: 20 Mar 2009 
хард н хэвщик (support team)
User avatar
Joined: 02 Jun 2008
Posts: 16879
Lоcаtion: Н.Новгород
Age: 31
Name: Артем
спасибушки Спрут :dance:
обложка - класс.. думаю, альбом также не подведет :true:


Top
 Profile  
 
 
PostPosted: 20 Mar 2009 
Работнечег
User avatar
Joined: 28 Aug 2007
Posts: 5229
Lоcаtion: г. Москва
Age: 29
Name: Дима
Спасибо, тоже заберу!


Top
 Profile E-mail  
 
 
PostPosted: 20 Mar 2009 
Труъ
User avatar
Joined: 12 Aug 2008
Posts: 160
Lоcаtion: Днепропетровск
Age: 53
Name: Геннадий
Очень понравилось.Спасибо. :thanx: :dance: :meloman:

_________________
ROCK N ROLL — не болезнь, а лекарство.Принимаем ежедневно.


Top
 Profile E-mail  
 
 
PostPosted: 21 Mar 2009 
Доктор энтомологии
User avatar
Joined: 22 Jan 2009
Posts: 8961
Lоcаtion: Даугавпилс
Age: 43
Name: Алексей
:true: :thanx:


Top
 Profile  
 
 
PostPosted: 21 Mar 2009 
Хиппей (support team)
User avatar
Joined: 30 Jul 2007
Posts: 102932
Lоcаtion: Киев (Kyiv, UA)
Age: 44
Name: Andrey
:thanx:


Top
 Profile E-mail  
 
 
PostPosted: 21 Mar 2009 
хард н хэвщик (support team)
User avatar
Joined: 02 Jun 2008
Posts: 16879
Lоcаtion: Н.Новгород
Age: 31
Name: Артем
axxis wrote:
1. Lightnin'
сразу вспомнился первый трек.
и ведь точно - была у меня эта песня на сборнике The Very Best Heavy Metak From Europe (здесь она в другой версии)

p.s. от альбома не в восторге, да еще и в конец три баллады запихнули...


Top
 Profile  
 
 
PostPosted: 21 Mar 2009 
Почётный металлург
User avatar
Joined: 15 Sep 2007
Posts: 4357
Lоcаtion: Хабаровск
Age: 58
Name: чуть выше
McKagan wrote:
от альбома не в восторге, да еще и в конец три баллады запихнули...

А по мне так и не плохо. И баллады слушаются нормально, по-разному. Европейский хард 80-х. Европу раннюю напоминают. Словом, понравилось. Спасибу Спруту!

_________________
Коль будешь людей ты ослами честить,
тебе человеком меж них не прослыть!
(Саади, персидский поэт, 13в.)


Top
 Profile  
 
 
PostPosted: 22 Aug 2013 
парень в очёчкXаX!
User avatar
Joined: 15 Aug 2007
Posts: 2353
Lоcаtion: UK'раина, г. ЛондАн Би-Би-Си
Age: 47
Name: Сергей
группа одного альбома!
по всем правилам материал на сегодняшний день должОн иметь статус РАРа

попался тут по случаю цыд, послушал :shok:

какая муть! :beee: :kruz: :ping:


Top
 Profile  
 
 
PostPosted: 22 Aug 2013 
Хиппей (support team)
User avatar
Joined: 30 Jul 2007
Posts: 102932
Lоcаtion: Киев (Kyiv, UA)
Age: 44
Name: Andrey
:crazy:

Я еще не слушал... :pardon:

_________________


Top
 Profile E-mail  
 
 
PostPosted: 22 Aug 2013 
Анатолий
User avatar
Joined: 18 Oct 2008
Posts: 3002
Lоcаtion: Армавир
Age: 40
Name: Анатолий
attax wrote:
попался тут по случаю цыд, послушал


А никак нельзя лося с этой мути? :oops:


Top
 Profile E-mail  
 
 
PostPosted: 22 Aug 2013 
парень в очёчкXаX!
User avatar
Joined: 15 Aug 2007
Posts: 2353
Lоcаtion: UK'раина, г. ЛондАн Би-Би-Си
Age: 47
Name: Сергей
вроде не проблема в сети с лосслесс, но раз попросили, зграбил по быстрячку, пока диск не отдал ;)
муть-лось

сканер не мучал, т.к. есть тут в полном объеме

:meloman:


Top
 Profile  
 
 
PostPosted: 22 Aug 2013 
Анатолий
User avatar
Joined: 18 Oct 2008
Posts: 3002
Lоcаtion: Армавир
Age: 40
Name: Анатолий
attax

Спасибо большое! :thanx:

Да на все поиски просто рук не хватает... :oops:


Top
 Profile E-mail  
 
 
PostPosted: 22 Aug 2013 
Рарник и трушник
User avatar
Joined: 25 Dec 2009
Posts: 7684
Lоcаtion: Москва
Age: 52
Name: Виталий
Серёг, спасибо!
Послухаем, раньше не доводилось. :pardon:


Top
 Profile  
 
 
PostPosted: 22 Aug 2013 
спирт 100%
User avatar
Joined: 22 Sep 2008
Posts: 4185
Age: 46
Name: Саня
:thanx:


Top
 Profile  
 
 
PostPosted: 23 Aug 2013 
Хиппей (support team)
User avatar
Joined: 30 Jul 2007
Posts: 102932
Lоcаtion: Киев (Kyiv, UA)
Age: 44
Name: Andrey
Мутно дякую :thanx:

mirror: F-Bit l eDisk l Narod

covers
Image
Image
Image
Image
Image
Image
Image


log
Exact Audio Copy V1.0 beta 3 from 29. August 2011

Отчёт EAC об извлечении, выполненном 22. августа 2013, 16:43

Reward / Break Out

Дисковод: TEAC CD-W524E Adapter: 1 ID: 0

Режим чтения : Достоверность
Использование точного потока : Да
Отключение кэша аудио : Да
Использование указателей C2 : Нет

Коррекция смещения при чтении : 686
Способность читать области Lead-in и Lead-out : Нет
Заполнение пропущенных сэмплов тишиной : Да
Удаление блоков с тишиной в начале и конце : Нет
При вычислениях CRC использовались нулевые сэмплы : Да
Интерфейс : Встроенный Win32-интерфейс для Win NT/2000

Выходной формат : Внутренние WAV-операции
Формат сэмплов : 44.100 Гц; 16 бит; стерео


TOC извлечённого CD

Трек | Старт | Длительность | Начальный сектор | Конечный сектор
---------------------------------------------------------------------
1 | 0:00.00 | 2:58.57 | 0 | 13406
2 | 2:58.57 | 4:23.48 | 13407 | 33179
3 | 7:22.30 | 3:28.67 | 33180 | 48846
4 | 10:51.22 | 3:34.40 | 48847 | 64936
5 | 14:25.62 | 3:05.58 | 64937 | 78869
6 | 17:31.45 | 3:04.20 | 78870 | 92689
7 | 20:35.65 | 3:41.40 | 92690 | 109304
8 | 24:17.30 | 4:13.62 | 109305 | 128341
9 | 28:31.17 | 4:38.18 | 128342 | 149209
10 | 33:09.35 | 2:07.02 | 149210 | 158736


Характеристики диапазона извлечения и сообщения об ошибках

Выбранный диапазон

Имя файла D:\Music\Сегодня+\CoverZ\UPLOADz\Rewa\Reward - Break Out.wav

Пиковый уровень 100.0 %
Скорость извлечения 6.2 X
Качество диапазона 99.9 %
CRC копии 51502F98
Копирование... OK

Ошибок не произошло


AccurateRip: сводка

Трек 1 точность не определена (достоверность 2) [B268A414], AccurateRip вернул [7BB6BE79] (AR v2)
Трек 2 точность не определена (достоверность 2) [BD303501], AccurateRip вернул [F01299C2] (AR v2)
Трек 3 точность не определена (достоверность 2) [31A3BE36], AccurateRip вернул [44BE2FAB] (AR v2)
Трек 4 точность не определена (достоверность 2) [D59F63DF], AccurateRip вернул [9F9BC01A] (AR v2)
Трек 5 точность не определена (достоверность 2) [DEEC1222], AccurateRip вернул [7AACA0A1] (AR v2)
Трек 6 точность не определена (достоверность 2) [720871C4], AccurateRip вернул [CD9E0566] (AR v2)
Трек 7 точность не определена (достоверность 2) [24ABB0D0], AccurateRip вернул [A82DF045] (AR v2)
Трек 8 точность не определена (достоверность 2) [515BAFC1], AccurateRip вернул [2522C3DE] (AR v2)
Трек 9 точность не определена (достоверность 2) [66FE865D], AccurateRip вернул [D7C5EA04] (AR v2)
Трек 10 точность не определена (достоверность 2) [75773FA9], AccurateRip вернул [410B356B] (AR v2)

Ни один трек не прошёл проверки на точность
В вашей базе может быть иной вариант штамповки диска

Конец отчёта

---- CUETools DB Plugin V2.1.4

[CTDB TOCID: p6C_wwR5M4zw.VzDUKag3t29cNo-] disk not present in database
Submit result: p6C_wwR5M4zw.VzDUKag3t29cNo- has been uploaded

cue
REM DATE 1988
REM DISCID 8308440A
REM COMMENT "ExactAudioCopy v1.0b3"
PERFORMER "Reward"
TITLE "Break Out"
FILE "Reward - Break Out.wav" WAVE
TRACK 01 AUDIO
TITLE "Трек01"
PERFORMER "Reward"
INDEX 01 00:00:00
TRACK 02 AUDIO
TITLE "Трек02"
PERFORMER "Reward"
INDEX 00 02:55:07
INDEX 01 02:58:57
TRACK 03 AUDIO
TITLE "Трек03"
PERFORMER "Reward"
INDEX 00 07:18:55
INDEX 01 07:22:30
TRACK 04 AUDIO
TITLE "Трек04"
PERFORMER "Reward"
INDEX 00 10:47:47
INDEX 01 10:51:22
TRACK 05 AUDIO
TITLE "Трек05"
PERFORMER "Reward"
INDEX 00 14:22:12
INDEX 01 14:25:62
TRACK 06 AUDIO
TITLE "Трек06"
PERFORMER "Reward"
INDEX 00 17:27:70
INDEX 01 17:31:45
TRACK 07 AUDIO
TITLE "Трек07"
PERFORMER "Reward"
INDEX 00 20:32:15
INDEX 01 20:35:65
TRACK 08 AUDIO
TITLE "Трек08"
PERFORMER "Reward"
INDEX 00 24:13:55
INDEX 01 24:17:30
TRACK 09 AUDIO
TITLE "Трек09"
PERFORMER "Reward"
INDEX 00 28:27:42
INDEX 01 28:31:17
TRACK 10 AUDIO
TITLE "Трек10"
PERFORMER "Reward"
INDEX 00 33:05:60
INDEX 01 33:09:35

_________________


Top
 Profile E-mail  
 
 
PostPosted: 23 Aug 2013 
Хиппей (support team)
User avatar
Joined: 30 Jul 2007
Posts: 102932
Lоcаtion: Киев (Kyiv, UA)
Age: 44
Name: Andrey
Кста. Нормальный такой Hard & Heavy.
Серёг, тебя немного глуховатый и нетипичный вокал смутил? :vic:

_________________


Top
 Profile E-mail  
 
Display posts from previous:  Sort by  
Post new topic Reply to topic  [ 18 posts ] 

All times are UTC + 3 hours


Who is online

Users browsing this forum: No registered users and 4 guests


You cannot post new topics in this forum
You cannot reply to topics in this forum
You cannot edit your posts in this forum
You cannot delete your posts in this forum
You cannot post attachments in this forum

Search for:
Яндекс.Метрика
Powered by phpBB © 2000, 2002, 2005, 2007 phpBB Group