\m/ 80's metal \m/

Информационно-аналитический форум "80 см пыли" (In Search We Trust) "У нас никто никуда не спешит"
Me For You - http://me-4u.com
It is currently 21 Aug 2019

All times are UTC + 3 hours

Spoiler
Chat - temporary registration for foreign users (please leave your application here)







Post new topic Reply to topic  [ 5 posts ] 
Author Message
 
PostPosted: 03 Oct 2008 
Дежурный по КУПу
User avatar
Joined: 17 Aug 2007
Posts: 5871
Age: 51
Name: Ге
Rodmir - 1994 - Wild & Dangerous Girl

Image

1. Rodmir - Gispy Girl (4:24)
2. Rodmir - Hot And Wild (3:51)
3. Rodmir - Love Me Forever (5:26)
4. Rodmir - Any Life (5:13)
5. Rodmir - But I Don't Love It To Death (5:20)
6. Rodmir - Tell Me Why (5:18)
7. Rodmir - The Winner (4:39)
8. Rodmir - The Silence Of Love (5:23)

Лосика у меня получилось сжать в трех частях: 1, 2 и 3.
Рип не мой, стащил с торрент сру... ну, по крайней мере, до последнего поиска я так и считал, а полез автора релиза поискать и не нашел. Коверочки присутствуют. А лог выглядит так... хм... ну, надеюсь, за сокращенные пробелы лога в посте, меня никто пинать не будет:

Exact Audio Copy V0.99 prebeta 3 from 28. July 2007
Отчёт EAC об извлечении, выполненном 25. ноября 2007, 21:30
Rodmir / Wild & Dangerous Girl
Дисковод: Optiarc DVD RW AD-7170S Adapter: 1 ID: 0
Режим чтения : Достоверность
Использование точного потока : Да
Отключение кэша аудио : Да
Использование указателей C2 : Нет
Коррекция смещения при чтении : 48
Способность читать области Lead-in и Lead-out : Нет
Заполнение пропущенных сэмплов тишиной : Да
Удаление блоков с тишиной в начале и конце : Нет
При вычислениях CRC использовались нулевые сэмплы : Да
Интерфейс : Установленный внешний ASPI-интерфейс
Выходной формат : Внутренние WAV-операции
Формат сэмплов : 44.100 Гц; 16 бит; стерео
Смещение при сжатии : 48
TOC извлечённого CD
Трек | Старт | Длительность | Начальный сектор | Конечный сектор
---------------------------------------------------------------------
1 | 0:00.28 | 4:24.02 | 28 | 19829
2 | 4:24.30 | 3:51.45 | 19830 | 37199
3 | 8:16.00 | 5:26.70 | 37200 | 61719
4 | 13:42.70 | 5:13.38 | 61720 | 85232
5 | 18:56.33 | 5:20.60 | 85233 | 109292
6 | 24:17.18 | 5:18.60 | 109293 | 133202
7 | 29:36.03 | 4:39.40 | 133203 | 154167
8 | 34:15.43 | 5:23.35 | 154168 | 178427
Характеристики диапазона извлечения и сообщения об ошибках
Выбранный диапазон
Имя файла H:\Rodmir - Wild & Dangerous Girl.wav
Пиковый уровень 89.1 %
Качество диапазона 100.0 %
CRC копии 4BCBE942
Копирование... OK
Ошибок не произошло
AccurateRip: сводка
Трек 1 нет в базе данных
Трек 2 нет в базе данных
Трек 3 нет в базе данных
Трек 4 нет в базе данных
Трек 5 нет в базе данных
Трек 6 нет в базе данных
Трек 7 нет в базе данных
Трек 8 нет в базе данных
Ни одного трека нет в базе AccurateRip
Конец отчёта


Андрюш, а функция spoiler на форуме не помешала бы...


Top
 Profile  
 
 
PostPosted: 03 Oct 2008 
Хиппей (support team)
User avatar
Joined: 30 Jul 2007
Posts: 114031
Lоcаtion: Киев (Kyiv, UA)
Age: 46
Name: Andrey
Спасибо, Ге :thanx:

German wrote:
функция spoiler на форуме не помешала бы...

Это разделение-слепка постов или что? :shok:


Top
 Profile E-mail  
 
 
PostPosted: 03 Oct 2008 
Хиппей (support team)
User avatar
Joined: 30 Jul 2007
Posts: 114031
Lоcаtion: Киев (Kyiv, UA)
Age: 46
Name: Andrey
German wrote:
стащил с торрент сру

Сейчас к нам нагрянет налоговая... :scratch:


Top
 Profile E-mail  
 
 
PostPosted: 23 Jul 2011 
ТрэшЭрос
User avatar
Joined: 18 Jul 2011
Posts: 2304
Lоcаtion: Гулькевичи
Age: 44
Name: Александр
Усе три сцылки нужно брать в рамку - они вже сдохли!!! :esel:

Вот здесь http://metalrus.ru/plug-e-files-c-rodmi ... irl_1.html есть енто в МРа3е :oops:

_________________
Thrash no trash!!!


Top
 Profile E-mail  
 
 
PostPosted: 23 Jul 2011 
Хиппей (support team)
User avatar
Joined: 30 Jul 2007
Posts: 114031
Lоcаtion: Киев (Kyiv, UA)
Age: 46
Name: Andrey
http://rutracker.org/forum/viewtopic.php?t=3381533

_________________


Top
 Profile E-mail  
 
Display posts from previous:  Sort by  
Post new topic Reply to topic  [ 5 posts ] 

All times are UTC + 3 hours


Who is online

Users browsing this forum: No registered users and 1 guest


You cannot post new topics in this forum
You cannot reply to topics in this forum
You cannot edit your posts in this forum
You cannot delete your posts in this forum
You cannot post attachments in this forum

Search for:
Яндекс.Метрика
Powered by phpBB © 2000, 2002, 2005, 2007 phpBB Group