\m/ 80's metal \m/

Информационно-аналитический форум "80 см пыли" (In Search We Trust) "У нас никто никуда не спешит"
Me For You - http://me-4u.com
It is currently 15 Dec 2019

All times are UTC + 3 hours

Spoiler
Chat - temporary registration for foreign users (please leave your application here)







Post new topic Reply to topic  [ 11 posts ] 
Author Message
 
PostPosted: 06 Jan 2018 
Анатолий
User avatar
Joined: 18 Oct 2008
Posts: 3641
Lоcаtion: Армавир
Age: 42
Name: Анатолий
Renegade - "Time to Choose" - 1992

Image

Lineup:

Magnus Tallåker
lead vocals
Mats Ottosson
guitars
Thomas Kullman
guitars
Håkan Jardmo
drums
Per Billengren
keyboards

Track listing:

1 Hold Back the Night 3:04
2 Time to Choose 3:53
3 Listen to Your Heart 4:04
4 Sweet Ballerina 4:09
5 You're My Everything 3:42
6 Mine Forever 3:37
7 You Will Take Me Back 3:14
8 Emotional Rescue 3:30
9 Hey You 3:17
10 Sweet Angel 4:46
11 Monday Morning 3:54
12 Keep On Running 3:35
13 Destiny 3:52
14 Young Generation 4:16

Total length: 52:53


Last edited by Privateer on 08 Jan 2018, edited 2 times in total.

Top
 Profile E-mail  
 
 
PostPosted: 06 Jan 2018 
Хиппей (support team)
User avatar
Joined: 30 Jul 2007
Posts: 116142
Lоcаtion: Киев (Kyiv, UA)
Age: 46
Name: Andrey
/// :shok: :shok: :shok: \\\

Толь, ты чиво? :(
Совсем плохо?

http://raritetno.com/lossless/123262-re ... sless.html

_________________


Top
 Profile E-mail  
 
 
PostPosted: 07 Jan 2018 
Анатолий
User avatar
Joined: 18 Oct 2008
Posts: 3641
Lоcаtion: Армавир
Age: 42
Name: Анатолий
А чаво? :oops:

Я где знал везде посмотрел. Об этом сайте не знал. Спасибо! :thanx: :true:


Top
 Profile E-mail  
 
 
PostPosted: 07 Jan 2018 
Хиппей (support team)
User avatar
Joined: 30 Jul 2007
Posts: 116142
Lоcаtion: Киев (Kyiv, UA)
Age: 46
Name: Andrey
А Гугл тебе зачем? :vic:


Список очень важных тем :arrow: viewforum.php?f=113

_________________


Top
 Profile E-mail  
 
 
PostPosted: 07 Jan 2018 
Хиппей (support team)
User avatar
Joined: 30 Jul 2007
Posts: 116142
Lоcаtion: Киев (Kyiv, UA)
Age: 46
Name: Andrey
Privateer wrote:
Об этом сайте не знал

А ведь действительно, мы с тобой с разных планет. И это хорошо :kro:

Меньше знаешь - меньше каши в голове. Больше ешь - шире пузо :dance:

_________________


Top
 Profile E-mail  
 
 
PostPosted: 07 Jan 2018 
Хиппей (support team)
User avatar
Joined: 30 Jul 2007
Posts: 116142
Lоcаtion: Киев (Kyiv, UA)
Age: 46
Name: Andrey
Renegade - 1992 - Time To Choose (Japanese pressing) [flac]

Image

mirror: Depos l Narod l M-Cloud l Drop

pics
Image

Image

Image

Image

Image

Image

Image

Image

Image

Image

Image

Image

Image

Image

Image

Image

log
Exact Audio Copy V1.1 from 23. June 2015

Отчёт EAC об извлечении, выполненном 15. января 2016, 21:52

Renegade / Time To Choose

Дисковод: PLEXTOR BD-R PX-B950SA Adapter: 1 ID: 0

Режим чтения : Достоверность
Использование точного потока : Да
Отключение кэша аудио : Да
Использование указателей C2 : Нет

Коррекция смещения при чтении : 6
Способность читать области Lead-in и Lead-out : Нет
Заполнение пропущенных сэмплов тишиной : Да
Удаление блоков с тишиной в начале и конце : Нет
При вычислениях CRC использовались нулевые сэмплы : Да
Интерфейс : Встроенный Win32-интерфейс для Win NT/2000

Выходной формат : Пользовательский кодировщик
Выбранный битрейт : 1024 kBit/s
Качество : Высокий
Добавление ID3-тега : Нет
Утилита сжатия : C:\Program Files (x86)\Exact Audio Copy\FLAC\FLAC.EXE
Дополнительные параметры : -6 -V -T "ARTIST=%artist%" -T "TITLE=%title%" -T "ALBUM=%albumtitle%" -T "DATE=%year%" -T "TRACKNUMBER=%tracknr%" -T "GENRE=%genre%" -T "COMMENT=%comment%" -T "BAND=%albuminterpret%" -T "ALBUMARTIST=%albuminterpret%" -T "COMPOSER=%composer%" %haslyrics%--tag-from-file=LYRICS="%lyricsfile%"%haslyrics% -T "DISCNUMBER=%cdnumber%" -T "TOTALDISCS=%totalcds%" -T "TOTALTRACKS=%numtracks%" %hascover%--picture="%coverfile%"%hascover% %source% -o %dest%


TOC извлечённого CD

Трек | Старт | Длительность | Начальный сектор | Конечный сектор
---------------------------------------------------------------------
1 | 0:00.00 | 3:04.37 | 0 | 13836
2 | 3:04.37 | 3:53.05 | 13837 | 31316
3 | 6:57.42 | 4:03.63 | 31317 | 49604
4 | 11:01.30 | 4:09.07 | 49605 | 68286
5 | 15:10.37 | 3:42.25 | 68287 | 84961
6 | 18:52.62 | 3:36.70 | 84962 | 101231
7 | 22:29.57 | 3:13.53 | 101232 | 115759
8 | 25:43.35 | 3:30.37 | 115760 | 131546
9 | 29:13.72 | 3:17.33 | 131547 | 146354
10 | 32:31.30 | 4:45.55 | 146355 | 167784
11 | 37:17.10 | 3:54.17 | 167785 | 185351
12 | 41:11.27 | 3:34.63 | 185352 | 201464
13 | 44:46.15 | 3:52.30 | 201465 | 218894
14 | 48:38.45 | 4:17.30 | 218895 | 238199


Характеристики диапазона извлечения и сообщения об ошибках

Выбранный диапазон

Имя файла G:\RIP\Renegade 1992 Japanese Pressing FLAC by alzal\Renegade - Time To Choose.wav

Пиковый уровень 100.0 %
Скорость извлечения 8.5 X
Качество диапазона 100.0 %
CRC теста 3C0253B0
CRC копии 3C0253B0
Копирование... OK

Ошибок не произошло


AccurateRip: сводка

Трек 1 : извлечено точно (доверие 2) [115F2C92] (AR v2)
Трек 2 : извлечено точно (доверие 2) [EE48B289] (AR v2)
Трек 3 : извлечено точно (доверие 2) [A93FFC8C] (AR v2)
Трек 4 : извлечено точно (доверие 2) [0C8BD50C] (AR v2)
Трек 5 : извлечено точно (доверие 2) [61539F46] (AR v2)
Трек 6 : извлечено точно (доверие 2) [7D9EAB58] (AR v2)
Трек 7 : извлечено точно (доверие 2) [837E2EAE] (AR v2)
Трек 8 : извлечено точно (доверие 2) [B5D49120] (AR v2)
Трек 9 : извлечено точно (доверие 2) [261093E2] (AR v2)
Трек 10 : извлечено точно (доверие 2) [73C856E9] (AR v2)
Трек 11 : извлечено точно (доверие 2) [C20A9076] (AR v2)
Трек 12 : извлечено точно (доверие 2) [7C7B6483] (AR v2)
Трек 13 : извлечено точно (доверие 2) [56BA253C] (AR v2)
Трек 14 : извлечено точно (доверие 2) [57DCB922] (AR v2)

Все треки извлечены точно

Конец отчёта

---- CUETools DB Plugin V2.1.6

[CTDB TOCID: mwGAzfulJRLTKoIYo4Kda6SO2Is-] found
Submit result: mwGAzfulJRLTKoIYo4Kda6SO2Is- has been confirmed
Track | CTDB Status
1 | (1/1) Accurately ripped
2 | (1/1) Accurately ripped
3 | (1/1) Accurately ripped
4 | (1/1) Accurately ripped
5 | (1/1) Accurately ripped
6 | (1/1) Accurately ripped
7 | (1/1) Accurately ripped
8 | (1/1) Accurately ripped
9 | (1/1) Accurately ripped
10 | (1/1) Accurately ripped
11 | (1/1) Accurately ripped
12 | (1/1) Accurately ripped
13 | (1/1) Accurately ripped
14 | (1/1) Accurately ripped

cue
REM GENRE "Melodic Hard Rock"
REM DATE 1992
REM DISCID C50C680E
REM COMMENT "ExactAudioCopy v1.1"
PERFORMER "Renegade"
TITLE "Time To Choose"
FILE "Renegade - Time To Choose.flac" WAVE
TRACK 01 AUDIO
TITLE "Hold Back The Night"
PERFORMER "Renegade"
INDEX 01 00:00:00
TRACK 02 AUDIO
TITLE "Time To Choose"
PERFORMER "Renegade"
INDEX 00 03:02:42
INDEX 01 03:04:37
TRACK 03 AUDIO
TITLE "Listen To Your Heart"
PERFORMER "Renegade"
INDEX 00 06:56:30
INDEX 01 06:57:42
TRACK 04 AUDIO
TITLE "Sweet Ballerina"
PERFORMER "Renegade"
INDEX 00 10:59:50
INDEX 01 11:01:30
TRACK 05 AUDIO
TITLE "You're My Everything"
PERFORMER "Renegade"
INDEX 00 15:09:10
INDEX 01 15:10:37
TRACK 06 AUDIO
TITLE "Mine Forever"
PERFORMER "Renegade"
INDEX 00 18:51:45
INDEX 01 18:52:62
TRACK 07 AUDIO
TITLE "You Will Take Me Back"
PERFORMER "Renegade"
INDEX 00 22:28:62
INDEX 01 22:29:57
TRACK 08 AUDIO
TITLE "Emotional Rescue"
PERFORMER "Renegade"
INDEX 01 25:43:35
TRACK 09 AUDIO
TITLE "Hey You"
PERFORMER "Renegade"
INDEX 00 29:12:42
INDEX 01 29:13:72
TRACK 10 AUDIO
TITLE "Sweet Angel"
PERFORMER "Renegade"
INDEX 00 32:29:45
INDEX 01 32:31:30
TRACK 11 AUDIO
TITLE "Monday Morning"
PERFORMER "Renegade"
INDEX 01 37:17:10
TRACK 12 AUDIO
TITLE "Keep On Running"
PERFORMER "Renegade"
INDEX 00 41:10:40
INDEX 01 41:11:27
TRACK 13 AUDIO
TITLE "Destiny"
PERFORMER "Renegade"
INDEX 00 44:44:65
INDEX 01 44:46:15
TRACK 14 AUDIO
TITLE "Young Generation"
PERFORMER "Renegade"
INDEX 00 48:36:22
INDEX 01 48:38:45

_________________


Top
 Profile E-mail  
 
 
PostPosted: 07 Jan 2018 
Хиппей (support team)
User avatar
Joined: 30 Jul 2007
Posts: 116142
Lоcаtion: Киев (Kyiv, UA)
Age: 46
Name: Andrey
Запрос снимается.
Альбом послушал - отличное качество.
Сама музыка попсовая слишком.


Топик чуть позже соединится с мп3-штным и улетит в "Бухту" :kro:

_________________


Top
 Profile E-mail  
 
 
PostPosted: 07 Jan 2018 
Анатолий
User avatar
Joined: 18 Oct 2008
Posts: 3641
Lоcаtion: Армавир
Age: 42
Name: Анатолий
Спасибо за помощь в поиске релиза!!! :thanx: :true:


Top
 Profile E-mail  
 
 
PostPosted: 07 Jan 2018 
Хиппей (support team)
User avatar
Joined: 30 Jul 2007
Posts: 116142
Lоcаtion: Киев (Kyiv, UA)
Age: 46
Name: Andrey
БбррББ. Это ж та же группа? :arrow: viewtopic.php?f=150&t=9951 :scratch:

_________________


Top
 Profile E-mail  
 
 
PostPosted: 08 Jan 2018 
Анатолий
User avatar
Joined: 18 Oct 2008
Posts: 3641
Lоcаtion: Армавир
Age: 42
Name: Анатолий
Вроде бы нет... а там кто знает...


Top
 Profile E-mail  
 
 
PostPosted: 08 Jan 2018 
Хиппей (support team)
User avatar
Joined: 30 Jul 2007
Posts: 116142
Lоcаtion: Киев (Kyiv, UA)
Age: 46
Name: Andrey
Ага, иная. Состав вообще нет тот. Да и музыка потяжелее :arrow: https://www.metal-archives.com/bands/Renegade/16681

Тогда темы не объединяются :pardon: Попишу теперь и там город, как и ты.
Вот, видишь, что означает правильно оформленное имя темы и её наполнение :kro:

_________________


Top
 Profile E-mail  
 
Display posts from previous:  Sort by  
Post new topic Reply to topic  [ 11 posts ] 

All times are UTC + 3 hours


Who is online

Users browsing this forum: No registered users and 1 guest


You cannot post new topics in this forum
You cannot reply to topics in this forum
You cannot edit your posts in this forum
You cannot delete your posts in this forum
You cannot post attachments in this forum

Search for:
Яндекс.Метрика
Powered by phpBB © 2000, 2002, 2005, 2007 phpBB Group