\m/ 80's metal \m/

Информационно-аналитический форум "80 см пыли" (In Search We Trust) "У нас никто никуда не спешит"
Me For You - http://me-4u.com
It is currently 08 Dec 2019

All times are UTC + 3 hours

Spoiler
Chat - temporary registration for foreign users (please leave your application here)







Post new topic Reply to topic  [ 29 posts ]  Go to page 1, 2  Next
Author Message
 
PostPosted: 24 Aug 2009 
А может смените мне статус?..
Joined: 03 Jul 2009
Posts: 891
Lоcаtion: Serbia
Name: Laki
Rellik (US) - Killer (2002)

Image

1. Intro
2. Dream Killer
3. Street Sinner
4. Rellik
5. Beg, Borrow or Steal
6. Feed the Hunger
7. Into the Flesh
8. Prisoner of Reality
9. Defend or Attack
10. Why We Are
11. Skulls

Thanks !!!


Last edited by glory11 on 14 Nov 2016, edited 1 time in total.

Top
 Profile E-mail  
 
 
PostPosted: 14 Nov 2016 
Работнечег
User avatar
Joined: 28 Aug 2007
Posts: 6086
Lоcаtion: г. Москва
Age: 30
Name: Дима
Image
Year: 2002
Label: Iron Glory Records
Genre: Heavy Metal
Coutry: US
Format: Flac + Log + Cue + Covers
Size: 335 Mb

Line-Up:
Fabrice Bellini - Bass (ex-Tyton)
Pat "Spaz" Paolo - Drums (ex-Lo'doe, ex-Roll-X-Side, ex-Shogunz)
Michael Scott - Guitars
Kent Robertson - Guitars (Ikki Crane, ex-Tyton)
Mike "Sleaze" Moore - Vocals (ex-Forgotten Disciple)

Tracklist:
1. Rellik Story 01:04
2. Dream Killer 04:44
3. Street Sinner 03:48
4. Rellik 05:41
5. Beg, Borrow or Steal 04:35
6. Feed the Hunger 04:12
7. Into the Flesh 05:09
8. Prisoner of Reality 05:28
9. Defend or Attack 03:10
10. Why We Are 05:49
11. Skulls 04:37

LOG
Exact Audio Copy V0.99 prebeta 5 from 4. May 2009

EAC extraction logfile from 16. October 2016, 11:37

Rellik / Killer (Compilation)

Used drive : PIONEER DVD-RW DVR-221 Adapter: 2 ID: 1

Read mode : Secure
Utilize accurate stream : Yes
Defeat audio cache : Yes
Make use of C2 pointers : No

Read offset correction : 6
Overread into Lead-In and Lead-Out : No
Fill up missing offset samples with silence : Yes
Delete leading and trailing silent blocks : No
Null samples used in CRC calculations : Yes
Used interface : Native Win32 interface for Win NT & 2000

Used output format : User Defined Encoder
Selected bitrate : 32 kBit/s
Quality : High
Add ID3 tag : No
Command line compressor : C:\Program Files\Exact Audio Copy\Flac\flac.exe
Additional command line options : -6 -V %s


TOC of the extracted CD

Track | Start | Length | Start sector | End sector
---------------------------------------------------------
1 | 0:00.00 | 1:04.53 | 0 | 4852
2 | 1:04.53 | 4:43.71 | 4853 | 26148
3 | 5:48.49 | 3:47.39 | 26149 | 43212
4 | 9:36.13 | 5:41.57 | 43213 | 68844
5 | 15:17.70 | 4:34.52 | 68845 | 89446
6 | 19:52.47 | 4:11.65 | 89447 | 108336
7 | 24:04.37 | 5:08.41 | 108337 | 131477
8 | 29:13.03 | 5:28.39 | 131478 | 156116
9 | 34:41.42 | 3:10.10 | 156117 | 170376
10 | 37:51.52 | 5:49.15 | 170377 | 196566
11 | 43:40.67 | 4:36.37 | 196567 | 217303


Range status and errors

Selected range

Filename D:\Музыка\Lossless\Rellik - Killer (Compilation)(2001)\Rellik - Killer (Compilation).wav

Peak level 98.8 %
Range quality 100.0 %
Copy CRC 848B5930
Copy OK

No errors occurred


AccurateRip summary

Track 1 cannot be verified as accurate (confidence 2) [809EADB7], AccurateRip returned [A9C5EF6B]
Track 2 cannot be verified as accurate (confidence 2) [C0671DB6], AccurateRip returned [E0A9121E]
Track 3 cannot be verified as accurate (confidence 2) [29818FFB], AccurateRip returned [B2038B83]
Track 4 cannot be verified as accurate (confidence 2) [100571F5], AccurateRip returned [619C280D]
Track 5 cannot be verified as accurate (confidence 2) [22A54090], AccurateRip returned [5C1D0FC0]
Track 6 cannot be verified as accurate (confidence 2) [9C5C41DF], AccurateRip returned [A7638177]
Track 7 cannot be verified as accurate (confidence 2) [0AD23FBA], AccurateRip returned [1B5C8142]
Track 8 cannot be verified as accurate (confidence 2) [A3A98B56], AccurateRip returned [182E2716]
Track 9 cannot be verified as accurate (confidence 2) [C9CF989F], AccurateRip returned [E0C5F877]
Track 10 cannot be verified as accurate (confidence 2) [9E638219], AccurateRip returned [3C0FBEF1]
Track 11 cannot be verified as accurate (confidence 2) [D4CF048E], AccurateRip returned [24FD8B92]

No tracks could be verified as accurate
You may have a different pressing from the one(s) in the database

End of status report

CUE
REM GENRE "Heavy Metal"
REM DATE 2001
REM DISCID 940B510B
REM COMMENT "ExactAudioCopy v0.99pb5"
PERFORMER "Rellik"
TITLE "Killer (Compilation)"
FILE "Rellik - Killer (Compilation).flac" WAVE
TRACK 01 AUDIO
TITLE "Intro"
PERFORMER "Rellik"
INDEX 01 00:00:00
TRACK 02 AUDIO
TITLE "Dream Killer"
PERFORMER "Rellik"
INDEX 01 01:04:53
TRACK 03 AUDIO
TITLE "Street Sinner"
PERFORMER "Rellik"
INDEX 01 05:48:49
TRACK 04 AUDIO
TITLE "Rellik"
PERFORMER "Rellik"
INDEX 01 09:36:13
TRACK 05 AUDIO
TITLE "Beg, Borrow Or Steal"
PERFORMER "Rellik"
INDEX 01 15:17:70
TRACK 06 AUDIO
TITLE "Feed The Hunger"
PERFORMER "Rellik"
INDEX 01 19:52:47
TRACK 07 AUDIO
TITLE "Into The Flesh"
PERFORMER "Rellik"
INDEX 01 24:04:37
TRACK 08 AUDIO
TITLE "Prisoner Of Reality"
PERFORMER "Rellik"
INDEX 01 29:13:03
TRACK 09 AUDIO
TITLE "Defend Or Attack"
PERFORMER "Rellik"
INDEX 01 34:41:42
TRACK 10 AUDIO
TITLE "Why We Are"
PERFORMER "Rellik"
INDEX 01 37:51:52
TRACK 11 AUDIO
TITLE "Skulls"
PERFORMER "Rellik"
INDEX 01 43:40:67


Yadi



Top
 Profile E-mail  
 
 
PostPosted: 14 Nov 2016 
Работнечег
User avatar
Joined: 28 Aug 2007
Posts: 6086
Lоcаtion: г. Москва
Age: 30
Name: Дима
viewtopic.php?p=281605#p281605


Top
 Profile E-mail  
 
 
PostPosted: 14 Nov 2016 
А может смените мне статус?..
Joined: 03 Jul 2009
Posts: 891
Lоcаtion: Serbia
Name: Laki
I totally forgot about this, it was long time ago. Thank you for fulfilling my request!!!! :thanx:


Top
 Profile E-mail  
 
 
PostPosted: 14 Nov 2016 
Прокъмитолист
User avatar
Joined: 12 Aug 2007
Posts: 6649
Lоcаtion: Санктъ-Петербуркъ
Age: 52
Name: Олекъ
:thanx:

_________________
прокъметол - это музыко, от которово есть прок (ы)


Top
 Profile  
 
 
PostPosted: 14 Nov 2016 
Хиппей (support team)
User avatar
Joined: 30 Jul 2007
Posts: 116009
Lоcаtion: Киев (Kyiv, UA)
Age: 46
Name: Andrey
:thanx:

mirror: iFolder l Narod l M-Cloud

_________________


Top
 Profile E-mail  
 
 
PostPosted: 14 Nov 2016 
Генеральный thrasher
User avatar
Joined: 03 Oct 2008
Posts: 3743
Lоcаtion: Ханты-Мансийский АО
Age: 44
Name: Сергей
Путёвая банда?Али мне такое не покатит?


Top
 Profile  
 
 
PostPosted: 14 Nov 2016 
Хиппей (support team)
User avatar
Joined: 30 Jul 2007
Posts: 116009
Lоcаtion: Киев (Kyiv, UA)
Age: 46
Name: Andrey
А хрен же его знает, товарищ майор. Вона одна песенка с Ютуба есть же =)

_________________


Top
 Profile E-mail  
 
 
PostPosted: 14 Nov 2016 
Хиппей (support team)
User avatar
Joined: 30 Jul 2007
Posts: 116009
Lоcаtion: Киев (Kyiv, UA)
Age: 46
Name: Andrey
Димка, я подпихну твоё всё в этот топик, ага?

_________________


Top
 Profile E-mail  
 
 
PostPosted: 14 Nov 2016 
семерых одним ударом
Joined: 18 Aug 2007
Posts: 4289
Lоcаtion: Владивосток
Age: 44
Name: Николай Николаевич
крутяк, спасибо!!
thorbeorn wrote:
Али мне такое не покатит?

если нравится приличный хэви 80-ых...не трешак точно))


Top
 Profile  
 
 
PostPosted: 14 Nov 2016 
Хиппей (support team)
User avatar
Joined: 30 Jul 2007
Posts: 116009
Lоcаtion: Киев (Kyiv, UA)
Age: 46
Name: Andrey
aziel wrote:
приличный хэви 80-ых.

Power Heavy :lloo:

_________________


Top
 Profile E-mail  
 
 
PostPosted: 14 Nov 2016 
Генеральный thrasher
User avatar
Joined: 03 Oct 2008
Posts: 3743
Lоcаtion: Ханты-Мансийский АО
Age: 44
Name: Сергей
Ладно,заслушаю.В любом случае Димке спасибо!


Top
 Profile  
 
 
PostPosted: 14 Nov 2016 
консэрваторъ
User avatar
Joined: 11 Aug 2007
Posts: 17498
Lоcаtion: Псков
Age: 45
Name: Сергей
А может наоборот надо?..

_________________
THRASH 'EM ALL


Top
 Profile E-mail  
 
 
PostPosted: 14 Nov 2016 
Хиппей (support team)
User avatar
Joined: 30 Jul 2007
Posts: 116009
Lоcаtion: Киев (Kyiv, UA)
Age: 46
Name: Andrey
А может наоборот надо?..

Это понятно, что наоборот, но по датам получатся всё равно запросовые посты выше :pardon:

_________________


Top
 Profile E-mail  
 
 
PostPosted: 14 Nov 2016 
Хиппей (support team)
User avatar
Joined: 30 Jul 2007
Posts: 116009
Lоcаtion: Киев (Kyiv, UA)
Age: 46
Name: Andrey
Приятная группа. Приятная сборка песен. Сразу оценка за три прослушивания - 6/10

Оставлю альбом на ночь слушать, ибо есть некоторые очень умилительные песни, которыми ещё раз внимательно хочется насладиться :meloman:

_________________


Top
 Profile E-mail  
 
 
PostPosted: 15 Nov 2016 
консэрваторъ
User avatar
Joined: 11 Aug 2007
Posts: 17498
Lоcаtion: Псков
Age: 45
Name: Сергей
Шесть... :arrov: http://www.metal-archives.com/search?se ... =band_name

_________________
THRASH 'EM ALL


Top
 Profile E-mail  
 
 
PostPosted: 15 Nov 2016 
Хиппей (support team)
User avatar
Joined: 30 Jul 2007
Posts: 116009
Lоcаtion: Киев (Kyiv, UA)
Age: 46
Name: Andrey
Ага, а "наша" вотета :arrow: http://www.metal-archives.com/bands/Rellik/13739

_________________


Top
 Profile E-mail  
 
 
PostPosted: 15 Nov 2016 
Хиппей (support team)
User avatar
Joined: 30 Jul 2007
Posts: 116009
Lоcаtion: Киев (Kyiv, UA)
Age: 46
Name: Andrey
Так, в общем, ещё несколько раз послушал сборник. Меняю оценку на 6+ и ещё стиль, явно на US Power с прогом, а то очень уж много песен сложных для простого павера, а тем паче, для хэви.
Короче, группа играет в манере Queensryche, чтоб было понятно. Или Crimson Glory. Только чуть помягче.

Ждём Егора для окончательного диагноза :kro:

_________________


Top
 Profile E-mail  
 
 
PostPosted: 15 Nov 2016 
Генеральный thrasher
User avatar
Joined: 03 Oct 2008
Posts: 3743
Lоcаtion: Ханты-Мансийский АО
Age: 44
Name: Сергей
Неплохой коллектив.Мне понравился.Хоть хэви я в последнее время не жалую.


Top
 Profile  
 
 
PostPosted: 15 Nov 2016 
Power Metal Maniac
User avatar
Joined: 09 Aug 2008
Posts: 6991
Lоcаtion: Москва
Age: 41
Name: Егор
Scatterbrain wrote:
группа играет в манере Queensryche, чтоб было понятно. Или Crimson Glory. Только чуть помягче.

Ждём Егора для окончательного диагноза

Тогда вряд ли доберусь. Это все псевдо-Павер ((((

_________________
Long Live Metal!


Top
 Profile  
 
Display posts from previous:  Sort by  
Post new topic Reply to topic  [ 29 posts ]  Go to page 1, 2  Next

All times are UTC + 3 hours


Who is online

Users browsing this forum: No registered users and 3 guests


You cannot post new topics in this forum
You cannot reply to topics in this forum
You cannot edit your posts in this forum
You cannot delete your posts in this forum
You cannot post attachments in this forum

Search for:
Яндекс.Метрика
Powered by phpBB © 2000, 2002, 2005, 2007 phpBB Group