\m/ 80's metal \m/

Информационно-аналитический форум "80 см пыли" (In Search We Trust) "У нас никто никуда не спешит"
Me For You - http://me-4u.com
It is currently 24 Aug 2019

All times are UTC + 3 hours

Spoiler
Chat - temporary registration for foreign users (please leave your application here)







Post new topic Reply to topic  [ 109 posts ]  Go to page Previous  1, 2, 3, 4, 5, 6  Next
Author Message
 
PostPosted: 05 Oct 2016 
Хиппей (support team)
User avatar
Joined: 30 Jul 2007
Posts: 114073
Lоcаtion: Киев (Kyiv, UA)
Age: 46
Name: Andrey
Хых, это я не туды перенёс :crazy: :thanx:

_________________


Top
 Profile E-mail  
 
 
PostPosted: 08 Oct 2016 
Хиппей (support team)
User avatar
Joined: 30 Jul 2007
Posts: 114073
Lоcаtion: Киев (Kyiv, UA)
Age: 46
Name: Andrey
Scatterbrain wrote:
Revenge - 2005 - Metal Warriors

Здесь группа ещё не играла не то что чистый спид, а просто наяривала то, что её нравилось. Хэви с паверными моментами, например, просто хэви. На альбоме всего несколько скоростных вещей, но зато он... живой. Здесь имеется творчество, а не скорость, вокал орущий, скорость гитарных запилов и ритм-секции.
Обычный хэви, который играли в Британии или Германии в середине 80-х.
Вокалист ещё не испортился и поёт хоть и подростковым голосом. но поёт, а не мямлит, еле успеваю за скоростью игры инструменталистов.
Мне альбом альбом понравился больше, чем 09 года. Сами поймёте, почему, когда послушаете. Хотя, уже выше я это почти и рассказал :lloo:

4/10

_________________


Top
 Profile E-mail  
 
 
PostPosted: 08 Oct 2016 
Хиппей (support team)
User avatar
Joined: 30 Jul 2007
Posts: 114073
Lоcаtion: Киев (Kyiv, UA)
Age: 46
Name: Andrey
Scatterbrain wrote:
Revenge - 2007 - Rage And Revenge

Хм, а этот альбом уже начал прививать группе тот самый спид, за который её типа полюбили чуть позже челочек 50-70.
Я же не полюбил, потому как именно этот релиз пока считаю вершиной творчества коллектива. Альбом звучит в духе тех же 80-х с присущим для того времени саундом и набором песен.
И здесь группа ещё творила, а не елозила по струнам.

6/10

_________________


Top
 Profile E-mail  
 
 
PostPosted: 08 Oct 2016 
Я набрал 1000 сообщений!
Joined: 09 Jul 2008
Posts: 2997
Age: 46
Name: Сергей
кстати, это ещё не дискография если что


Top
 Profile  
 
 
PostPosted: 08 Oct 2016 
дядя Миша
User avatar
Joined: 17 Oct 2008
Posts: 3169
Lоcаtion: USSR
Age: 56
Name: Khy
Спасибо, качнул.Ща слушаю кобру колумбийскую 2015 год вроде как. Хороший хеви спиид и вокал красив хоть и несколько высок.Лося бы со сканами надыбать.


Top
 Profile  
 
 
PostPosted: 08 Oct 2016 
Хиппей (support team)
User avatar
Joined: 30 Jul 2007
Posts: 114073
Lоcаtion: Киев (Kyiv, UA)
Age: 46
Name: Andrey
Корба то хороша. Там один вокал харизматичный чего ст0ит, а эти так, самоделкины :pardon:

_________________


Top
 Profile E-mail  
 
 
PostPosted: 09 Oct 2016 
Генеральный thrasher
User avatar
Joined: 03 Oct 2008
Posts: 3717
Lоcаtion: Ханты-Мансийский АО
Age: 44
Name: Сергей
Кобра может и хороша.А мне Revenge нравится.Прикупил себе ещё один диск.


Top
 Profile  
 
 
PostPosted: 02 Nov 2016 
Генеральный thrasher
User avatar
Joined: 03 Oct 2008
Posts: 3717
Lоcаtion: Ханты-Мансийский АО
Age: 44
Name: Сергей
Image

Year:2007 (2012 Re-Issue)
Style:Speed/Heavy Metal
Country:Colombia
Archive:Flac+Cue+Log+Scans
Source:my CD
Size:378Mb
Label:Iron Shield Records

Tracklist:
01. Nocturnal Squad (Intro) 01:57
02. Maximum Destruction 03:10
03. Reign Of Chaos 04:44
04. Rage And Revenge 03:35
05. Speed Metal Overload 03:08
06. Days Of Anthology 04:37
07. War Allies 04:47
08. Rising Forces 03:44
09. Metal On Wheels 03:21
10. Night Anthems (Outro) 01:01
Bonus Live Tracks:
11. Hell Avenger 03:53
12. Vengeance Of Hell 04:30
13. Maximum Destruction 02:53
14. Heavy Metal Maniac 03:33
15. Metal Warriors 05:42

"Cue"
REM GENRE "Speed/Heavy Metal"
REM DATE 2012
REM DISCID E30CCA0F
REM COMMENT "ExactAudioCopy v1.1"
PERFORMER "Revenge"
TITLE "Rage And Revenge"
FILE "Revenge - Rage And Revenge.flac" WAVE
TRACK 01 AUDIO
TITLE "Nocturnal Squad (Intro)"
PERFORMER "Revenge"
INDEX 01 00:00:00
TRACK 02 AUDIO
TITLE "Maximum Destruction"
PERFORMER "Revenge"
INDEX 01 01:56:69
TRACK 03 AUDIO
TITLE "Reign Of Chaos"
PERFORMER "Revenge"
INDEX 01 05:06:69
TRACK 04 AUDIO
TITLE "Rage And Revenge"
PERFORMER "Revenge"
INDEX 01 09:50:35
TRACK 05 AUDIO
TITLE "Speed Metal Overload"
PERFORMER "Revenge"
INDEX 01 13:25:07
TRACK 06 AUDIO
TITLE "Days Of Anthology"
PERFORMER "Revenge"
INDEX 01 16:33:30
TRACK 07 AUDIO
TITLE "War Allies"
PERFORMER "Revenge"
INDEX 01 21:10:40
TRACK 08 AUDIO
TITLE "Rising Forces"
PERFORMER "Revenge"
INDEX 01 25:57:30
TRACK 09 AUDIO
TITLE "Metal On Wheels"
PERFORMER "Revenge"
INDEX 01 29:41:64
TRACK 10 AUDIO
TITLE "Night Anthems (Outro)"
PERFORMER "Revenge"
INDEX 01 33:02:31
TRACK 11 AUDIO
TITLE "Hell Avenger (live)"
PERFORMER "Revenge"
INDEX 01 34:03:12
TRACK 12 AUDIO
TITLE "Vengeance of Hell (live)"
PERFORMER "Revenge"
INDEX 01 37:55:61
TRACK 13 AUDIO
TITLE "Maximum Destruction (live)"
PERFORMER "Revenge"
INDEX 01 42:26:07
TRACK 14 AUDIO
TITLE "Heavy Metal Maniac (live)"
PERFORMER "Revenge"
INDEX 01 45:18:54
TRACK 15 AUDIO
TITLE "Metal Warriors (live)"
PERFORMER "Revenge"
INDEX 01 48:52:09

"Log"
Exact Audio Copy V1.1 from 23. June 2015

Отчёт EAC об извлечении, выполненном 30. октября 2016, 10:45

Revenge / Rage And Revenge

Дисковод: HL-DT-STDVDRAM GTA0N Adapter: 1 ID: 0

Режим чтения : Достоверность
Использование точного потока : Да
Отключение кэша аудио : Да
Использование указателей C2 : Нет

Коррекция смещения при чтении : 102
Способность читать области Lead-in и Lead-out : Нет
Заполнение пропущенных сэмплов тишиной : Да
Удаление блоков с тишиной в начале и конце : Нет
При вычислениях CRC использовались нулевые сэмплы : Да
Интерфейс : Встроенный Win32-интерфейс для Win NT/2000

Выходной формат : Пользовательский кодировщик
Выбранный битрейт : 768 kBit/s
Качество : Высокий
Добавление ID3-тега : Нет
Утилита сжатия : C:\Program Files (x86)\Exact Audio Copy\FLAC\FLAC.EXE
Дополнительные параметры : -6 -V -T "ARTIST=%artist%" -T "TITLE=%title%" -T "ALBUM=%albumtitle%" -T "DATE=%year%" -T "TRACKNUMBER=%tracknr%" -T "GENRE=%genre%" -T "COMMENT=%comment%" -T "BAND=%albuminterpret%" -T "ALBUMARTIST=%albuminterpret%" -T "COMPOSER=%composer%" %haslyrics%--tag-from-file=LYRICS="%lyricsfile%"%haslyrics% -T "DISCNUMBER=%cdnumber%" -T "TOTALDISCS=%totalcds%" -T "TOTALTRACKS=%numtracks%" %hascover%--picture="%coverfile%"%hascover% %source% -o %dest%


TOC извлечённого CD

Трек | Старт | Длительность | Начальный сектор | Конечный сектор
---------------------------------------------------------------------
1 | 0:00.00 | 1:56.69 | 0 | 8768
2 | 1:56.69 | 3:10.00 | 8769 | 23018
3 | 5:06.69 | 4:43.41 | 23019 | 44284
4 | 9:50.35 | 3:34.47 | 44285 | 60381
5 | 13:25.07 | 3:08.23 | 60382 | 74504
6 | 16:33.30 | 4:37.10 | 74505 | 95289
7 | 21:10.40 | 4:46.65 | 95290 | 116804
8 | 25:57.30 | 3:44.34 | 116805 | 133638
9 | 29:41.64 | 3:20.42 | 133639 | 148680
10 | 33:02.31 | 1:00.56 | 148681 | 153236
11 | 34:03.12 | 3:52.49 | 153237 | 170685
12 | 37:55.61 | 4:30.21 | 170686 | 190956
13 | 42:26.07 | 2:52.47 | 190957 | 203903
14 | 45:18.54 | 3:33.30 | 203904 | 219908
15 | 48:52.09 | 5:42.23 | 219909 | 245581


Характеристики диапазона извлечения и сообщения об ошибках

Выбранный диапазон

Имя файла C:\Users\магазин\Music\Revenge - Rage And Revenge.wav

Пиковый уровень 99.6 %
Скорость извлечения 3.9 X
Качество диапазона 100.0 %
CRC копии EC695257
Копирование... OK

Ошибок не произошло


AccurateRip: сводка

Трек 1 отсутствует в базе данных
Трек 2 отсутствует в базе данных
Трек 3 отсутствует в базе данных
Трек 4 отсутствует в базе данных
Трек 5 отсутствует в базе данных
Трек 6 отсутствует в базе данных
Трек 7 отсутствует в базе данных
Трек 8 отсутствует в базе данных
Трек 9 отсутствует в базе данных
Трек 10 отсутствует в базе данных
Трек 11 отсутствует в базе данных
Трек 12 отсутствует в базе данных
Трек 13 отсутствует в базе данных
Трек 14 отсутствует в базе данных
Трек 15 отсутствует в базе данных

Ни одного трека нет в базе AccurateRip

Конец отчёта

---- CUETools DB Plugin V2.1.6

[CTDB TOCID: dILCP12yKi4tYtc0MG7bY5Mpa7g-] disk not present in database
Submit result: dILCP12yKi4tYtc0MG7bY5Mpa7g- has been uploaded


Rage And Revenge


Top
 Profile  
 
 
PostPosted: 02 Nov 2016 
Прокъмитолист
User avatar
Joined: 12 Aug 2007
Posts: 6593
Lоcаtion: Санктъ-Петербуркъ
Age: 51
Name: Олекъ
:thanx:

_________________
прокъметол - это музыко, от которово есть прок (ы)


Top
 Profile  
 
 
PostPosted: 02 Nov 2016 
Рарник и трушник
User avatar
Joined: 25 Dec 2009
Posts: 8733
Lоcаtion: Москва
Age: 54
Name: Виталий
:thanx: :lob:


Top
 Profile  
 
 
PostPosted: 02 Nov 2016 
А может смените мне статус?..
User avatar
Joined: 24 Dec 2008
Posts: 647
Age: 45
Name: Дмитрий
Спасибо!


Top
 Profile  
 
 
PostPosted: 13 Jan 2017 
Генеральный thrasher
User avatar
Joined: 03 Oct 2008
Posts: 3717
Lоcаtion: Ханты-Мансийский АО
Age: 44
Name: Сергей
Image

Year:2014
Style:Speed/Heavy Metal
Country:Colombia
Archive:Flac+Cue+Log+Scans
Source:my CD
Size:429Mb
Label:Metal Command Records

Tracklist:
Soldiers Under Satan's Command (EP) 2013:
01. March Of Death 01:00
02. Metal & Wild 05:07
03. Satan's Soldiers 04:45
04. The Ritualist 03:47
Bang Your Head (EP) 2008:
05. Bang Your Head 04:16
06. Whipping Death 02:47
07. The Tombstones Scream 03:55
08. Metal Warriors 05:13
09. Rising Forces (Live) 03:48
10. War Allies (Live) 04:20
Infernal Angels (demo) 2003:
11. Heavy Infection 05:43
12. Infernal Angels 05:06
13. Endless Nightmare 03:53
14. Heavy Metal Maniac 04:01
15. Bloody Revenge 06:12

"Cue"
REM GENRE "Speed/Heavy Metal"
REM DATE 2014
REM DISCID D40EF80F
REM COMMENT "ExactAudioCopy v1.1"
PERFORMER "Revenge"
TITLE "Soldiers Under Satan's Command"
FILE "Revenge - Soldiers Under Satan's Command.flac" WAVE
TRACK 01 AUDIO
TITLE "March Of Death"
PERFORMER "Revenge"
FLAGS DCP
INDEX 01 00:00:00
TRACK 02 AUDIO
TITLE "Metal & Wild"
PERFORMER "Revenge"
FLAGS DCP
INDEX 01 01:00:04
TRACK 03 AUDIO
TITLE "Satan's Soldiers"
PERFORMER "Revenge"
FLAGS DCP
INDEX 01 06:07:01
TRACK 04 AUDIO
TITLE "The Ritualist"
PERFORMER "Revenge"
FLAGS DCP
INDEX 01 10:51:73
TRACK 05 AUDIO
TITLE "Bang Your Head"
PERFORMER "Revenge"
FLAGS DCP
INDEX 01 14:39:10
TRACK 06 AUDIO
TITLE "Whipping Death"
PERFORMER "Revenge"
FLAGS DCP
INDEX 01 18:54:49
TRACK 07 AUDIO
TITLE "The Tombstones Scream"
PERFORMER "Revenge"
FLAGS DCP
INDEX 01 21:41:23
TRACK 08 AUDIO
TITLE "Metal Warriors"
PERFORMER "Revenge"
FLAGS DCP
INDEX 01 25:36:54
TRACK 09 AUDIO
TITLE "Rising Forces (Live)"
PERFORMER "Revenge"
FLAGS DCP
INDEX 01 30:49:26
TRACK 10 AUDIO
TITLE "War Allies (Live)"
PERFORMER "Revenge"
FLAGS DCP
INDEX 01 34:37:37
TRACK 11 AUDIO
TITLE "Heavy Infection"
PERFORMER "Revenge"
FLAGS DCP
INDEX 01 38:57:44
TRACK 12 AUDIO
TITLE "Infernal Angels"
PERFORMER "Revenge"
FLAGS DCP
INDEX 01 44:40:19
TRACK 13 AUDIO
TITLE "Endless Nightmare"
PERFORMER "Revenge"
FLAGS DCP
INDEX 01 49:46:50
TRACK 14 AUDIO
TITLE "Heavy Metal Maniac"
PERFORMER "Revenge"
FLAGS DCP
INDEX 01 53:39:15
TRACK 15 AUDIO
TITLE "Bloody Revenge"
PERFORMER "Revenge"
FLAGS DCP
INDEX 01 57:40:42

"Log"
Exact Audio Copy V1.1 from 23. June 2015

Отчёт EAC об извлечении, выполненном 13. января 2017, 11:00

Revenge / Soldiers Under Satan's Command

Дисковод: HL-DT-STDVDRAM GTA0N Adapter: 1 ID: 0

Режим чтения : Достоверность
Использование точного потока : Да
Отключение кэша аудио : Да
Использование указателей C2 : Нет

Коррекция смещения при чтении : 102
Способность читать области Lead-in и Lead-out : Нет
Заполнение пропущенных сэмплов тишиной : Да
Удаление блоков с тишиной в начале и конце : Нет
При вычислениях CRC использовались нулевые сэмплы : Да
Интерфейс : Встроенный Win32-интерфейс для Win NT/2000

Выходной формат : Пользовательский кодировщик
Выбранный битрейт : 768 kBit/s
Качество : Высокий
Добавление ID3-тега : Нет
Утилита сжатия : C:\Program Files (x86)\Exact Audio Copy\FLAC\FLAC.EXE
Дополнительные параметры : -6 -V -T "ARTIST=%artist%" -T "TITLE=%title%" -T "ALBUM=%albumtitle%" -T "DATE=%year%" -T "TRACKNUMBER=%tracknr%" -T "GENRE=%genre%" -T "COMMENT=%comment%" -T "BAND=%albuminterpret%" -T "ALBUMARTIST=%albuminterpret%" -T "COMPOSER=%composer%" %haslyrics%--tag-from-file=LYRICS="%lyricsfile%"%haslyrics% -T "DISCNUMBER=%cdnumber%" -T "TOTALDISCS=%totalcds%" -T "TOTALTRACKS=%numtracks%" %hascover%--picture="%coverfile%"%hascover% %source% -o %dest%


TOC извлечённого CD

Трек | Старт | Длительность | Начальный сектор | Конечный сектор
---------------------------------------------------------------------
1 | 0:00.00 | 1:00.04 | 0 | 4503
2 | 1:00.04 | 5:06.72 | 4504 | 27525
3 | 6:07.01 | 4:44.72 | 27526 | 48897
4 | 10:51.73 | 3:47.12 | 48898 | 65934
5 | 14:39.10 | 4:15.39 | 65935 | 85098
6 | 18:54.49 | 2:46.49 | 85099 | 97597
7 | 21:41.23 | 3:55.31 | 97598 | 115253
8 | 25:36.54 | 5:12.47 | 115254 | 138700
9 | 30:49.26 | 3:48.11 | 138701 | 155811
10 | 34:37.37 | 4:20.07 | 155812 | 175318
11 | 38:57.44 | 5:42.50 | 175319 | 201018
12 | 44:40.19 | 5:06.31 | 201019 | 223999
13 | 49:46.50 | 3:52.40 | 224000 | 241439
14 | 53:39.15 | 4:01.27 | 241440 | 259541
15 | 57:40.42 | 6:11.52 | 259542 | 287418


Характеристики диапазона извлечения и сообщения об ошибках

Выбранный диапазон

Имя файла C:\Users\магазин\Music\Revenge - Soldiers Under Satan's Command.wav

Пиковый уровень 100.0 %
Скорость извлечения 4.2 X
Качество диапазона 99.9 %
CRC копии 86195E32
Копирование... OK

Ошибок не произошло


AccurateRip: сводка

Трек 1 отсутствует в базе данных
Трек 2 отсутствует в базе данных
Трек 3 отсутствует в базе данных
Трек 4 отсутствует в базе данных
Трек 5 отсутствует в базе данных
Трек 6 отсутствует в базе данных
Трек 7 отсутствует в базе данных
Трек 8 отсутствует в базе данных
Трек 9 отсутствует в базе данных
Трек 10 отсутствует в базе данных
Трек 11 отсутствует в базе данных
Трек 12 отсутствует в базе данных
Трек 13 отсутствует в базе данных
Трек 14 отсутствует в базе данных
Трек 15 отсутствует в базе данных

Ни одного трека нет в базе AccurateRip

Конец отчёта

---- CUETools DB Plugin V2.1.6

[CTDB TOCID: GCLmL71Ry6.xYTDIYUDiQZnVOck-] found
Submit result: GCLmL71Ry6.xYTDIYUDiQZnVOck- has been confirmed
Track | CTDB Status
1 | (2/2) Accurately ripped
2 | (2/2) Accurately ripped
3 | (2/2) Accurately ripped
4 | (2/2) Accurately ripped
5 | (2/2) Accurately ripped
6 | (2/2) Accurately ripped
7 | (2/2) Accurately ripped
8 | (2/2) Accurately ripped
9 | (2/2) Accurately ripped
10 | (2/2) Accurately ripped
11 | (2/2) Accurately ripped
12 | (2/2) Accurately ripped
13 | (2/2) Accurately ripped
14 | (2/2) Accurately ripped
15 | (2/2) Accurately ripped


Soldiers Under Satan's Command (Compilation)


Top
 Profile  
 
 
PostPosted: 13 Jan 2017 
Рарник и трушник
User avatar
Joined: 25 Dec 2009
Posts: 8733
Lоcаtion: Москва
Age: 54
Name: Виталий
:thanx:


Top
 Profile  
 
 
PostPosted: 13 Jan 2017 
Хиппей (support team)
User avatar
Joined: 30 Jul 2007
Posts: 114073
Lоcаtion: Киев (Kyiv, UA)
Age: 46
Name: Andrey
thorbeorn wrote:
Rage And Revenge

:thanx:

mirror: iFolder l Narod l M-Cloud

thorbeorn wrote:
Soldiers Under Satan's Command (Compilation)

:thanx:

mirror: iFolder l Narod l M-Cloud

_________________


Top
 Profile E-mail  
 
 
PostPosted: 13 Jan 2017 
Прокъмитолист
User avatar
Joined: 12 Aug 2007
Posts: 6593
Lоcаtion: Санктъ-Петербуркъ
Age: 51
Name: Олекъ
:thanx:

_________________
прокъметол - это музыко, от которово есть прок (ы)


Top
 Profile  
 
 
PostPosted: 14 Jan 2017 
Хиппей (support team)
User avatar
Joined: 30 Jul 2007
Posts: 114073
Lоcаtion: Киев (Kyiv, UA)
Age: 46
Name: Andrey
thorbeorn wrote:
Rage And Revenge

Хм, странное дело.
Создалось впечатление, что я эти песни уже слышал и не раз и давно =)
Возможно это некий сборник, ну да ладно, не в подробностях суть.
Поначалу альбом очень плохо заходил в уши из-за убогости своего саунда и кучи использованных клишеобразных ходов в музыке.
Но раз на 3-4-й всё же понравилась именно активность группы и дерзость. И некий шарм всё ж у них есть. Осталось дождаться теперь качественно записанного в студии альбома, а не подвале какой-то коммуналку колумбийской.
Хотя, явно такие группы и славны своим драйвом первородным и таким вот звуком - чисто олдово-трушным андеграундным :kro:

6/10

_________________


Top
 Profile E-mail  
 
 
PostPosted: 14 Jan 2017 
Хиппей (support team)
User avatar
Joined: 30 Jul 2007
Posts: 114073
Lоcаtion: Киев (Kyiv, UA)
Age: 46
Name: Andrey
thorbeorn wrote:
Soldiers Under Satan's Command (EP) 2013:
01. March Of Death 01:00
02. Metal & Wild 05:07
03. Satan's Soldiers 04:45
04. The Ritualist 03:47

Прикольно слушать сейчас сборник и миники с него. Вот это помесь Металлики и Аннигилятора =)

_________________


Top
 Profile E-mail  
 
 
PostPosted: 14 Jan 2017 
Хиппей (support team)
User avatar
Joined: 30 Jul 2007
Posts: 114073
Lоcаtion: Киев (Kyiv, UA)
Age: 46
Name: Andrey
thorbeorn wrote:
Bang Your Head (EP) 2008:
05. Bang Your Head 04:16
06. Whipping Death 02:47
07. The Tombstones Scream 03:55
08. Metal Warriors 05:13
09. Rising Forces (Live) 03:48
10. War Allies (Live) 04:20

Хы, а здесь ещё подростковый вокалист орёть :crazy:
Не пойму, почему нельзя было в хронологическом порядке расположить на компиляшке релизы? :vic:

_________________


Top
 Profile E-mail  
 
 
PostPosted: 14 Jan 2017 
Хиппей (support team)
User avatar
Joined: 30 Jul 2007
Posts: 114073
Lоcаtion: Киев (Kyiv, UA)
Age: 46
Name: Andrey
Scatterbrain wrote:
Хм, странное дело.
Создалось впечатление, что я эти песни уже слышал и не раз и давно =)

Ага, раньше ж в топике здесь Серёга выкладывал не переиздания ранних альбомов :dance:

_________________


Top
 Profile E-mail  
 
 
PostPosted: 11 Oct 2017 
Partisanen - nicht kapitulieren!!
User avatar
Joined: 25 Dec 2011
Posts: 7086
Lоcаtion: партизанские леса
Age: 46
Name: Владимир
7 числа новый албум вышел - Spitting Fire
Image
01. HEAVY METAL FRIENDS 03:33
02. THIRST OF AVANGE 03:54
03. RISE OF THE BRAVES 04:56
04. SPITTING FIRE 03:50
05. THY AXES SCREAM 03:11
06. WILD TILL DEATH 04:23
07. SADISTIC CRUELTY - THE REVENGEANCE 04:40
08. INFERNAL ANGELS (2017 VERSION) 04:05

https://revenge666.bandcamp.com/album/spitting-fire

_________________
One more beer and Heavy Metal and I'm just fine!
старовер, куле... слово "блин" - до сих пор через Ъ говорю


Last edited by 32warlord1 on 14 Jul 2018, edited 1 time in total.

Top
 Profile E-mail  
 
Display posts from previous:  Sort by  
Post new topic Reply to topic  [ 109 posts ]  Go to page Previous  1, 2, 3, 4, 5, 6  Next

All times are UTC + 3 hours


Who is online

Users browsing this forum: No registered users and 1 guest


You cannot post new topics in this forum
You cannot reply to topics in this forum
You cannot edit your posts in this forum
You cannot delete your posts in this forum
You cannot post attachments in this forum

Search for:
Яндекс.Метрика
Powered by phpBB © 2000, 2002, 2005, 2007 phpBB Group