\m/ 80's metal \m/

Информационно-аналитический форум "80 см пыли" (In Search We Trust) "У нас никто никуда не спешит"
Me For You - http://me-4u.com
It is currently 18 Nov 2019

All times are UTC + 3 hours

Spoiler
Chat - temporary registration for foreign users (please leave your application here)







Post new topic Reply to topic  [ 109 posts ]  Go to page Previous  1, 2, 3, 4, 5, 6  Next
Author Message
 
PostPosted: 04 Oct 2016 
Хиппей (support team)
User avatar
Joined: 30 Jul 2007
Posts: 115580
Lоcаtion: Киев (Kyiv, UA)
Age: 46
Name: Andrey
Или винил-рип от Макса :arrow: https://rutracker.org/forum/viewtopic.php?t=4518989

_________________


Top
 Profile E-mail  
 
 
PostPosted: 04 Oct 2016 
Хиппей (support team)
User avatar
Joined: 30 Jul 2007
Posts: 115580
Lоcаtion: Киев (Kyiv, UA)
Age: 46
Name: Andrey
Ой, какой нежданно мощный первый трэк на альбоме "Вендетта" :shok:

Слушаю дальше...

Revenge - 2012 - Vendetta [flac]

Image Image
Image Image

mirror: iFolder l Narod l M-Cloud

Image Image Image
Image Image Image

log
Exact Audio Copy V1.0 beta 3 from 29. August 2011

EAC extraction logfile from 26. March 2015, 20:09

Revenge / Vendetta

Used drive : ASUS DRW-24F1ST a Adapter: 4 ID: 0

Read mode : Secure
Utilize accurate stream : Yes
Defeat audio cache : Yes
Make use of C2 pointers : No

Read offset correction : 6
Overread into Lead-In and Lead-Out : No
Fill up missing offset samples with silence : Yes
Delete leading and trailing silent blocks : No
Null samples used in CRC calculations : Yes
Used interface : Native Win32 interface for Win NT & 2000

Used output format : User Defined Encoder
Selected bitrate : 896 kBit/s
Quality : High
Add ID3 tag : Yes
Command line compressor : C:\Program Files (x86)\FLAC Frontend\tools\flac.exe
Additional command line options : -V -8 -T "Date=%year%" -T "Genre=%genre%" %source%


TOC of the extracted CD

Track | Start | Length | Start sector | End sector
---------------------------------------------------------
1 | 0:00.00 | 3:50.61 | 0 | 17310
2 | 3:50.61 | 3:41.32 | 17311 | 33917
3 | 7:32.18 | 3:45.55 | 33918 | 50847
4 | 11:17.73 | 4:08.25 | 50848 | 69472
5 | 15:26.23 | 4:19.31 | 69473 | 88928
6 | 19:45.54 | 4:36.73 | 88929 | 109701
7 | 24:22.52 | 3:27.39 | 109702 | 125265
8 | 27:50.16 | 3:49.73 | 125266 | 142513
9 | 31:40.14 | 1:52.61 | 142514 | 150974


Range status and errors

Selected range

Filename G:\EAC - Hellixxx rip\Revenge - 2012 - Vendetta (Floga FL59).wav

Peak level 100.0 %
Extraction speed 2.6 X
Range quality 100.0 %
Test CRC 1B554A89
Copy CRC 1B554A89
Copy OK

No errors occurred


AccurateRip summary

Track 1 not present in database
Track 2 not present in database
Track 3 not present in database
Track 4 not present in database
Track 5 not present in database
Track 6 not present in database
Track 7 not present in database
Track 8 not present in database
Track 9 not present in database

None of the tracks are present in the AccurateRip database

End of status report

==== Log checksum F967A7D85C545E6DC575B98FDCC21F5366B28BCCD5F13F08A39549569F0053FC ====

cue
REM GENRE Metal
REM DATE 2012
REM DISCID 7B07DD09
REM COMMENT "ExactAudioCopy v1.0b3"
PERFORMER "Revenge"
TITLE "Vendetta"
FILE "Revenge - 2012 - Vendetta (Floga FL59).flac" WAVE
TRACK 01 AUDIO
TITLE "Vendetta"
PERFORMER "Revenge"
INDEX 01 00:00:00
TRACK 02 AUDIO
TITLE "Deal My Soul With Satan"
PERFORMER "Revenge"
INDEX 01 03:50:61
TRACK 03 AUDIO
TITLE "Maniac Behavior"
PERFORMER "Revenge"
INDEX 01 07:32:18
TRACK 04 AUDIO
TITLE "Possessed by Devil Music"
PERFORMER "Revenge"
INDEX 01 11:17:73
TRACK 05 AUDIO
TITLE "Renegade"
PERFORMER "Revenge"
INDEX 01 15:26:23
TRACK 06 AUDIO
TITLE "Wail From The Crypts"
PERFORMER "Revenge"
INDEX 01 19:45:54
TRACK 07 AUDIO
TITLE "Sadistic Perversions"
PERFORMER "Revenge"
INDEX 01 24:22:52
TRACK 08 AUDIO
TITLE "Riding in Hell"
PERFORMER "Revenge"
INDEX 01 27:50:16
TRACK 09 AUDIO
TITLE "Confessa Tuoi Peccati"
PERFORMER "Revenge"
INDEX 01 31:40:14

_________________


Top
 Profile E-mail  
 
 
PostPosted: 04 Oct 2016 
Хиппей (support team)
User avatar
Joined: 30 Jul 2007
Posts: 115580
Lоcаtion: Киев (Kyiv, UA)
Age: 46
Name: Andrey
Мде... Это была замануха. Второй уже типичный спид-хэви, а не трэш :cry:

_________________


Top
 Profile E-mail  
 
 
PostPosted: 04 Oct 2016 
Хиппей (support team)
User avatar
Joined: 30 Jul 2007
Posts: 115580
Lоcаtion: Киев (Kyiv, UA)
Age: 46
Name: Andrey
О, даже какой-то Рахманинов в 5-ю песню прокрался :meloman:
Или как его там. Классик, в общем :salieri:

_________________


Top
 Profile E-mail  
 
 
PostPosted: 04 Oct 2016 
Хиппей (support team)
User avatar
Joined: 30 Jul 2007
Posts: 115580
Lоcаtion: Киев (Kyiv, UA)
Age: 46
Name: Andrey
Нормальный альбом от 12 года. Почти весь на половину понравился - 5/10

Вся дискография группы в лосях, но пока платно :arrow: https://revenge666.bandcamp.com/music



Вопрос к Серёга Торбёрну - можно я все твои по данной группе топики в один слеплю?

_________________


Top
 Profile E-mail  
 
 
PostPosted: 05 Oct 2016 
Генеральный thrasher
User avatar
Joined: 03 Oct 2008
Posts: 3743
Lоcаtion: Ханты-Мансийский АО
Age: 44
Name: Сергей
Конечно,Андрей!


Top
 Profile  
 
 
PostPosted: 05 Oct 2016 
Хиппей (support team)
User avatar
Joined: 30 Jul 2007
Posts: 115580
Lоcаtion: Киев (Kyiv, UA)
Age: 46
Name: Andrey
Хо-ро-шо :thanx:

_________________


Top
 Profile E-mail  
 
 
PostPosted: 05 Oct 2016 
Хиппей (support team)
User avatar
Joined: 30 Jul 2007
Posts: 115580
Lоcаtion: Киев (Kyiv, UA)
Age: 46
Name: Andrey
Слепил. Но завтра перепроверю. Вроде альбомчег затерялся... :oops:

_________________


Top
 Profile E-mail  
 
 
PostPosted: 05 Oct 2016 
Хиппей (support team)
User avatar
Joined: 30 Jul 2007
Posts: 115580
Lоcаtion: Киев (Kyiv, UA)
Age: 46
Name: Andrey
Мдя.. Все альбомы на месте. Но читать топик невозможно - нужно теперь почти в каждый пост добавлять название альбома :crazy:
Завтра доделаю...

зы. Доделал. Но вышло всё равно кривовато. Но и хрен с ним, всё равно никто читать ничо не будет :kro:

_________________


Top
 Profile E-mail  
 
 
PostPosted: 05 Oct 2016 
Генеральный thrasher
User avatar
Joined: 03 Oct 2008
Posts: 3743
Lоcаtion: Ханты-Мансийский АО
Age: 44
Name: Сергей
Вся дискография группы в лосях, но пока платно :arrow: https://revenge666.bandcamp.com/music


Все остальные альбомы на тракторе присутствуют.Зачем нам платно?


Top
 Profile  
 
 
PostPosted: 05 Oct 2016 
Хиппей (support team)
User avatar
Joined: 30 Jul 2007
Posts: 115580
Lоcаtion: Киев (Kyiv, UA)
Age: 46
Name: Andrey
Точно? И зальник и миник свежий?

_________________


Top
 Profile E-mail  
 
 
PostPosted: 05 Oct 2016 
Хиппей (support team)
User avatar
Joined: 30 Jul 2007
Posts: 115580
Lоcаtion: Киев (Kyiv, UA)
Age: 46
Name: Andrey
Качну пока дебютник... :arrow: https://rutracker.org/forum/viewtopic.php?t=3632671

Revenge - 2005 - Metal Warriors [flac]

Image Image Image

mirror: iFolder l Narod l M-Cloud

Image Image Image Image

log
Отчёт EAC об извлечении, выполненном 16. января 2011, 22:49 для диска:
Unknown Artist / Unknown Title

Дисковод: PLEXTOR CD-R PX-W5224A Adapter: 0 ID: 1
Режим чтения: Достоверный (C2: нет, Точный поток: да, Отключение кэша: да)
Коррекция смещения при чтении: 30
Способность читать области Lead-in и Lead-out : Да

Выходной формат: Внутренние WAV-операции
44.100 Гц; 16 бит; стерео

Другие параметры:
Заполнение пропущенных сэмплов тишиной : Да
Удаление блоков с тишиной в начале и конце : Нет
Установленный внешний ASPI-интерфейс


Характеристики диапазона извлечения и сообщения об ошибках
Выбранный диапазон
Имя файла E:\EAC\Revenge-05.wav

Пиковый уровень 96.6 %
Качество диапазона 100.0 %
CRC 3EA21E19
Копирование... OK

Ошибок не произошло

Конец отчёта

cue
REM DISCID 5D0AE209
REM COMMENT "ExactAudioCopy v0.95b4"
PERFORMER "Revenge"
TITLE "Metal Warriors"
FILE "Metal Warriors.flac" WAVE
TRACK 01 AUDIO
TITLE "The Arrival Violence And Hard Sound"
PERFORMER "Revenge"
FLAGS DCP
INDEX 01 00:00:00
TRACK 02 AUDIO
TITLE "Avenger Of The Exile"
PERFORMER "Revenge"
FLAGS DCP
INDEX 01 01:38:30
TRACK 03 AUDIO
TITLE "Metal Warriors"
PERFORMER "Revenge"
FLAGS DCP
INDEX 01 10:22:12
TRACK 04 AUDIO
TITLE "Hate And Treason"
PERFORMER "Revenge"
FLAGS DCP
INDEX 01 16:49:58
TRACK 05 AUDIO
TITLE "Fire Attack"
PERFORMER "Revenge"
FLAGS DCP
INDEX 01 21:58:71
TRACK 06 AUDIO
TITLE "Riding In hell"
PERFORMER "Revenge"
FLAGS DCP
INDEX 01 26:46:58
TRACK 07 AUDIO
TITLE "Bloody Revenge (Bonus Track)"
PERFORMER "Revenge"
FLAGS DCP
INDEX 01 31:07:10
TRACK 08 AUDIO
TITLE "Infernal Angels (Bonus Track)"
PERFORMER "Revenge"
FLAGS DCP
INDEX 01 37:20:56
TRACK 09 AUDIO
TITLE "Heavy Metal Maniac (Bonus Track)"
PERFORMER "Revenge"
FLAGS DCP
INDEX 01 42:27:00

_________________


Top
 Profile E-mail  
 
 
PostPosted: 05 Oct 2016 
Генеральный thrasher
User avatar
Joined: 03 Oct 2008
Posts: 3743
Lоcаtion: Ханты-Мансийский АО
Age: 44
Name: Сергей
Не,я про полнометражники,Андрюх.Зальника и епишки конечно нет.


Top
 Profile  
 
 
PostPosted: 05 Oct 2016 
Хиппей (support team)
User avatar
Joined: 30 Jul 2007
Posts: 115580
Lоcаtion: Киев (Kyiv, UA)
Age: 46
Name: Andrey
Scatterbrain wrote:
Revenge - 2012 - Vendetta

в 5-й песне о Пристах вспоминают :kro:

5. Renegade 04:19
| +
I don't enter the church
Praying for redeem
My altar is a place in a bar
Drinking liquor and speak shit!

I don't go to the chapel
Satan is my master
With bitches I'm drunk
Listening metal music in my home!

I born rebel and so I will die
Renegade is the style of my life!

I don't care
What think the rest from me
Hey suckers! See me on radio and TV
Playing the music that tuck in me
I only hear the sermon from Judas Priest!

I born rebel and so I will die
Renegade is the style of my life!

I born rebel and so I will die
Renegade is the style of my life!

I start my motorbike
And I'm feeling the wind
My soul wants to leak
As I run through the streets!

With maximum speed
I do what I want
I am the law
But the police come back
Ahhhhhhhhh!!!

I born rebel and so I will die
Renegade is the style of my life!

I born rebel and so I will die
Renegade is the style of my life!


Вооот, сразу ж хитовенькой песня получается, когда лирику разумеешь :lloo:

_________________


Top
 Profile E-mail  
 
 
PostPosted: 05 Oct 2016 
Хиппей (support team)
User avatar
Joined: 30 Jul 2007
Posts: 115580
Lоcаtion: Киев (Kyiv, UA)
Age: 46
Name: Andrey
2007-й :arrow: https://rutracker.org/forum/viewtopic.php?t=3632687

Revenge - 2007 - Rage And Revenge [flac]

Image Image Image

mirror: iFolder l Narod l M-Cloud

Image Image Image Image

log
Отчёт EAC об извлечении, выполненном 16. января 2011, 23:21 для диска:
Unknown Artist / Unknown Title

Дисковод: PLEXTOR CD-R PX-W5224A Adapter: 0 ID: 1
Режим чтения: Достоверный (C2: нет, Точный поток: да, Отключение кэша: да)
Коррекция смещения при чтении: 30
Способность читать области Lead-in и Lead-out : Да

Выходной формат: Внутренние WAV-операции
44.100 Гц; 16 бит; стерео

Другие параметры:
Заполнение пропущенных сэмплов тишиной : Да
Удаление блоков с тишиной в начале и конце : Нет
Установленный внешний ASPI-интерфейс


Характеристики диапазона извлечения и сообщения об ошибках
Выбранный диапазон
Имя файла E:\EAC\Revenge-07.wav

Пиковый уровень 100.0 %
Качество диапазона 100.0 %
CRC 2EE18EA2
Копирование... OK

Ошибок не произошло

Конец отчёта

cue
REM DISCID 9807FE0A
REM COMMENT "ExactAudioCopy v0.95b4"
PERFORMER "Revenge"
TITLE "Rage and revenge"
FILE "Rage and revenge.flac" WAVE
TRACK 01 AUDIO
TITLE "Nocturnal Squad (Intro) "
PERFORMER "Revenge"
INDEX 01 00:00:00
TRACK 02 AUDIO
TITLE "Maximum Destruction"
PERFORMER "Revenge"
INDEX 01 01:55:26
TRACK 03 AUDIO
TITLE "Reign Of Chaos"
PERFORMER "Revenge"
INDEX 01 05:04:63
TRACK 04 AUDIO
TITLE "Rage And Revenge"
PERFORMER "Revenge"
INDEX 01 09:49:34
TRACK 05 AUDIO
TITLE "Speed Metal Overload"
PERFORMER "Revenge"
INDEX 01 13:24:29
TRACK 06 AUDIO
TITLE "Days Of Anthology (Instrumental)"
PERFORMER "Revenge"
INDEX 01 16:33:42
TRACK 07 AUDIO
TITLE "War Allies"
PERFORMER "Revenge"
INDEX 01 21:13:03
TRACK 08 AUDIO
TITLE "Rising Forcer"
PERFORMER "Revenge"
INDEX 01 26:01:03
TRACK 09 AUDIO
TITLE "Metal On Wheels"
PERFORMER "Revenge"
INDEX 01 29:45:17
TRACK 10 AUDIO
TITLE "Night Anthems (Outro)"
PERFORMER "Revenge"
INDEX 01 33:07:23

_________________


Top
 Profile E-mail  
 
 
PostPosted: 05 Oct 2016 
Хиппей (support team)
User avatar
Joined: 30 Jul 2007
Posts: 115580
Lоcаtion: Киев (Kyiv, UA)
Age: 46
Name: Andrey
Не,я про полнометражники,Андрюх.Зальника и епишки конечно нет.

Жаль. Ну, вживую группу и на Ютубе послушаю, а вот миник явно скоро перерастёт в полноформатник :kro:

_________________


Top
 Profile E-mail  
 
 
PostPosted: 05 Oct 2016 
Хиппей (support team)
User avatar
Joined: 30 Jul 2007
Posts: 115580
Lоcаtion: Киев (Kyiv, UA)
Age: 46
Name: Andrey
Начал слушать альбом 05 года. Кажись пацанам на нём ещё лет по 14-15... :kro:

Вокалист трушно орёть :true: :true: :true:

_________________


Top
 Profile E-mail  
 
 
PostPosted: 05 Oct 2016 
Генеральный thrasher
User avatar
Joined: 03 Oct 2008
Posts: 3743
Lоcаtion: Ханты-Мансийский АО
Age: 44
Name: Сергей
Вообще концертники не люблю.Исключение W.A.S.P - Live In The Raw и Slayer - Decade Of Aggression


Top
 Profile  
 
 
PostPosted: 05 Oct 2016 
Я набрал 1000 сообщений!
Joined: 09 Jul 2008
Posts: 3115
Age: 46
Name: Сергей
нет чтоб спать, тогда может быть и писать начал в те темы :benya:


Top
 Profile  
 
 
PostPosted: 05 Oct 2016 
Хиппей (support team)
User avatar
Joined: 30 Jul 2007
Posts: 115580
Lоcаtion: Киев (Kyiv, UA)
Age: 46
Name: Andrey
Да я помню. Мало кто любит.
Это нужно уметь, или просто любить живой звук :pardon:
А то многие, как услышат в чуть ином исполнении свои любимые песни на концертах, так чуть ли не блюют :lloo:

_________________


Top
 Profile E-mail  
 
Display posts from previous:  Sort by  
Post new topic Reply to topic  [ 109 posts ]  Go to page Previous  1, 2, 3, 4, 5, 6  Next

All times are UTC + 3 hours


Who is online

Users browsing this forum: No registered users and 2 guests


You cannot post new topics in this forum
You cannot reply to topics in this forum
You cannot edit your posts in this forum
You cannot delete your posts in this forum
You cannot post attachments in this forum

Search for:
Яндекс.Метрика
Powered by phpBB © 2000, 2002, 2005, 2007 phpBB Group