\m/ 80's metal \m/

Информационно-аналитический форум "80 см пыли" (In Search We Trust) "У нас никто никуда не спешит"
Me For You - http://me-4u.com
It is currently 24 Aug 2019

All times are UTC + 3 hours

Spoiler
Chat - temporary registration for foreign users (please leave your application here)







Post new topic Reply to topic  [ 109 posts ]  Go to page 1, 2, 3, 4, 5, 6  Next
Author Message
 
PostPosted: 29 Jul 2016 
Генеральный thrasher
User avatar
Joined: 03 Oct 2008
Posts: 3719
Lоcаtion: Ханты-Мансийский АО
Age: 44
Name: Сергей
На мой взгляд очень хорошая банда.В Колумбии альбом вышел в 2014 году.В В Европе в 2015.Любителям хэви и спида рекомендую послушать!

Image

Year:2015
Style:Speed/Heavy Metal
Country:Colombia
Archive:Flac+Cue+Log+Scans
Size:346Mb
Source:my CD
Label:Iron Shield Records

Line-Up:
Jorge Rojas "Seth" - bass
Esteban Mejía "Hellfire" - vocals,guitars
Daniel Hernández "Hell Avenger" - drums
Esteban Muñoz "NightCrawler" - guitars

Tracklist:
01. Headbangers Brigade 03:58
02. Harder Than Steel 04:11
03. Witching Possession 04:06
04. Back For Vengeance 04:35
05. Gravestone 04:03
06. Torment & Sacrifice 04:25
07. At The Gates Of Hell 04:49
08. Flying To Hell 04:10
09. Motorider (Version 2014) 04:35
10. Chains and Leather (Running Wild cover) 05:45

"Cue"
REM GENRE "Speed/Heavy Metal"
REM DATE 2015
REM DISCID 7E0A6F0A
REM COMMENT "ExactAudioCopy v1.1"
PERFORMER "Revenge"
TITLE "Harder Than Steel"
FILE "Revenge - Harder Than Steel.flac" WAVE
TRACK 01 AUDIO
TITLE "Headbangers Brigade"
PERFORMER "Revenge"
FLAGS DCP
INDEX 01 00:00:00
TRACK 02 AUDIO
TITLE "Harder Than Steel"
PERFORMER "Revenge"
FLAGS DCP
INDEX 01 03:57:19
TRACK 03 AUDIO
TITLE "Witching Possession"
PERFORMER "Revenge"
FLAGS DCP
INDEX 01 08:07:69
TRACK 04 AUDIO
TITLE "Back For Vengeance"
PERFORMER "Revenge"
FLAGS DCP
INDEX 01 12:13:16
TRACK 05 AUDIO
TITLE "Gravestone"
PERFORMER "Revenge"
FLAGS DCP
INDEX 01 16:47:57
TRACK 06 AUDIO
TITLE "Torment & Sacrifice"
PERFORMER "Revenge"
FLAGS DCP
INDEX 01 20:50:43
TRACK 07 AUDIO
TITLE "At The Gates Of Hell"
PERFORMER "Revenge"
FLAGS DCP
INDEX 01 25:14:68
TRACK 08 AUDIO
TITLE "Flying To Hell"
PERFORMER "Revenge"
FLAGS DCP
INDEX 01 30:03:03
TRACK 09 AUDIO
TITLE "Motorider (Version 2014)"
PERFORMER "Revenge"
FLAGS DCP
INDEX 01 34:12:66
TRACK 10 AUDIO
TITLE "Chains And Leather (Running Wild cover)"
PERFORMER "Revenge"
FLAGS DCP
INDEX 01 38:47:01

"Log"
Exact Audio Copy V1.1 from 23. June 2015

Отчёт EAC об извлечении, выполненном 18. июня 2016, 11:13

Revenge / Harder Than Steel

Дисковод: HL-DT-STDVDRAM GTA0N Adapter: 1 ID: 0

Режим чтения : Достоверность
Использование точного потока : Да
Отключение кэша аудио : Да
Использование указателей C2 : Нет

Коррекция смещения при чтении : 102
Способность читать области Lead-in и Lead-out : Нет
Заполнение пропущенных сэмплов тишиной : Да
Удаление блоков с тишиной в начале и конце : Нет
При вычислениях CRC использовались нулевые сэмплы : Да
Интерфейс : Встроенный Win32-интерфейс для Win NT/2000

Выходной формат : Пользовательский кодировщик
Выбранный битрейт : 768 kBit/s
Качество : Высокий
Добавление ID3-тега : Нет
Утилита сжатия : C:\Program Files (x86)\Exact Audio Copy\FLAC\FLAC.EXE
Дополнительные параметры : -6 -V -T "ARTIST=%artist%" -T "TITLE=%title%" -T "ALBUM=%albumtitle%" -T "DATE=%year%" -T "TRACKNUMBER=%tracknr%" -T "GENRE=%genre%" -T "COMMENT=%comment%" -T "BAND=%albuminterpret%" -T "ALBUMARTIST=%albuminterpret%" -T "COMPOSER=%composer%" %haslyrics%--tag-from-file=LYRICS="%lyricsfile%"%haslyrics% -T "DISCNUMBER=%cdnumber%" -T "TOTALDISCS=%totalcds%" -T "TOTALTRACKS=%numtracks%" %hascover%--picture="%coverfile%"%hascover% %source% -o %dest%


TOC извлечённого CD

Трек | Старт | Длительность | Начальный сектор | Конечный сектор
---------------------------------------------------------------------
1 | 0:00.00 | 3:57.19 | 0 | 17793
2 | 3:57.19 | 4:10.50 | 17794 | 36593
3 | 8:07.69 | 4:05.22 | 36594 | 54990
4 | 12:13.16 | 4:34.41 | 54991 | 75581
5 | 16:47.57 | 4:02.61 | 75582 | 93792
6 | 20:50.43 | 4:24.25 | 93793 | 113617
7 | 25:14.68 | 4:48.10 | 113618 | 135227
8 | 30:03.03 | 4:09.63 | 135228 | 153965
9 | 34:12.66 | 4:34.10 | 153966 | 174525
10 | 38:47.01 | 5:44.71 | 174526 | 200396


Характеристики диапазона извлечения и сообщения об ошибках

Выбранный диапазон

Имя файла C:\Users\магазин\Music\Revenge - Harder Than Steel.wav

Пиковый уровень 100.0 %
Скорость извлечения 3.9 X
Качество диапазона 99.9 %
CRC копии F485F09A
Копирование... OK

Ошибок не произошло


AccurateRip: сводка

Трек 1 отсутствует в базе данных
Трек 2 отсутствует в базе данных
Трек 3 отсутствует в базе данных
Трек 4 отсутствует в базе данных
Трек 5 отсутствует в базе данных
Трек 6 отсутствует в базе данных
Трек 7 отсутствует в базе данных
Трек 8 отсутствует в базе данных
Трек 9 отсутствует в базе данных
Трек 10 отсутствует в базе данных

Ни одного трека нет в базе AccurateRip

Конец отчёта

---- CUETools DB Plugin V2.1.6

[CTDB TOCID: Cjm2ZvB2PazfwddBejxlGETQbGU-] found
Submit result: Cjm2ZvB2PazfwddBejxlGETQbGU- has been confirmed
Track | CTDB Status
1 | (1/1) Accurately ripped
2 | (1/1) Accurately ripped
3 | (1/1) Accurately ripped
4 | (1/1) Accurately ripped
5 | (1/1) Accurately ripped
6 | (1/1) Accurately ripped
7 | (1/1) Accurately ripped
8 | (1/1) Accurately ripped
9 | (1/1) Accurately ripped
10 | (1/1) Accurately ripped


Harder Than Steel


Top
 Profile  
 
 
PostPosted: 29 Jul 2016 
Metal Collector
User avatar
Joined: 16 Nov 2008
Posts: 1257
Lоcаtion: Химки
Age: 36
Name: Андрей
Спасибо, отличная банда!


Top
 Profile E-mail  
 
 
PostPosted: 30 Jul 2016 
Прокъмитолист
User avatar
Joined: 12 Aug 2007
Posts: 6593
Lоcаtion: Санктъ-Петербуркъ
Age: 51
Name: Олекъ
:thanx:

_________________
прокъметол - это музыко, от которово есть прок (ы)


Top
 Profile  
 
 
PostPosted: 30 Jul 2016 
Хиппей (support team)
User avatar
Joined: 30 Jul 2007
Posts: 114093
Lоcаtion: Киев (Kyiv, UA)
Age: 46
Name: Andrey
:thanx:

Revenge - 2015 - Harder Than Steel

mirror: iFolder l Narod l M-Cloud

Знакомы уж с группой немного :lob: По радиве крутят :lob: :lob:

_________________


Top
 Profile E-mail  
 
 
PostPosted: 12 Aug 2016 
Alive Again
User avatar
Joined: 17 Dec 2008
Posts: 4747
Lоcаtion: Курск Воронеж Оскол
Age: 45
Name: Дмитрий
Серёга, :thanx:
Quote:
Знакомы уж с группой немного :lob: По радиве крутят :lob: :lob:

А что у вас за станции такие, которые спид метал крутят? Или интернетрадиво?


Top
 Profile E-mail  
 
 
PostPosted: 13 Aug 2016 
Хиппей (support team)
User avatar
Joined: 30 Jul 2007
Posts: 114093
Lоcаtion: Киев (Kyiv, UA)
Age: 46
Name: Andrey
dr_rockter wrote:
Или интернетрадиво?

Ага :pardon: http://onlineradiobox.com/us/hardradiocom/playlist

_________________


Top
 Profile E-mail  
 
 
PostPosted: 13 Aug 2016 
Рарник и трушник
User avatar
Joined: 25 Dec 2009
Posts: 8733
Lоcаtion: Москва
Age: 54
Name: Виталий
Ух, классная команда! Не шедевр, но очень и очень! Вокал местами на Рольфа похож.
Спасибо, Сергей! Люблю такие команды. :thanx:


Top
 Profile  
 
 
PostPosted: 13 Aug 2016 
Я набрал 1000 сообщений!
Joined: 09 Jul 2008
Posts: 3002
Age: 46
Name: Сергей
вещь, конечно, всегда нравился такой музон
когда первый раз услышал, подумал, что ожили бразильцы и не так уж сильно ошибся )


Top
 Profile  
 
 
PostPosted: 13 Aug 2016 
Генеральный thrasher
User avatar
Joined: 03 Oct 2008
Posts: 3719
Lоcаtion: Ханты-Мансийский АО
Age: 44
Name: Сергей
Группы в таком стиле я всё реже слушаю.Но вот Revenge наверное на сидюках соберу.


Top
 Profile  
 
 
PostPosted: 13 Aug 2016 
Я набрал 1000 сообщений!
Joined: 09 Jul 2008
Posts: 3002
Age: 46
Name: Сергей
ну первые два я, кстати, так и не слышал ещё )


Top
 Profile  
 
 
PostPosted: 13 Aug 2016 
Генеральный thrasher
User avatar
Joined: 03 Oct 2008
Posts: 3719
Lоcаtion: Ханты-Мансийский АО
Age: 44
Name: Сергей
Они по моему на трэкере присутствуют.


Top
 Profile  
 
 
PostPosted: 13 Aug 2016 
Я набрал 1000 сообщений!
Joined: 09 Jul 2008
Posts: 3002
Age: 46
Name: Сергей
возможно ) они и у меня есть )


Top
 Profile  
 
 
PostPosted: 30 Sep 2016 
Генеральный thrasher
User avatar
Joined: 03 Oct 2008
Posts: 3719
Lоcаtion: Ханты-Мансийский АО
Age: 44
Name: Сергей
Image

Year:2009 (2013 Re-Issue)
Style:Speed / Heavy Metal
Country:Colombia
Archive:Flac+Cue+Log+Scans
Size:429Mb
Source:my CD
Label:Kill Again Records

Tracklist:
01. Vengeance Of Hell 04:19
02. Metal Massacra 04:02
03. Death Sentence 04:40
04. Motorider 04:57
05. Beer Maniacs 04:25
06. The Demented 03:42
07. Speedkiller 03:40
08. Mutant Rat 03:29
09. Bloody Revenge (Death Sentence Version) 04:43
10. After the Storm of Steel and Hate (Outro) 01:26
Bang Your Head (EP) Bonus Tracks:
11. Bang Your Head 04:16
12. Whipping Death 02:47
13. The Tombstones Screams 03:55
14. Metal Warriors (New Speed Version) 05:13

"Cue"
REM GENRE "Speed/Heavy Metal"
REM DATE 2013
REM DISCID CF0D050E
REM COMMENT "ExactAudioCopy v1.1"
PERFORMER "Revenge"
TITLE "Death Sentence"
FILE "Revenge - Death Sentence.flac" WAVE
TRACK 01 AUDIO
TITLE "Vengeance Of Hell"
PERFORMER "Revenge"
FLAGS DCP
INDEX 01 00:00:00
TRACK 02 AUDIO
TITLE "Metal Massacra"
PERFORMER "Revenge"
FLAGS DCP
INDEX 01 04:19:07
TRACK 03 AUDIO
TITLE "Death Sentence"
PERFORMER "Revenge"
FLAGS DCP
INDEX 01 08:20:70
TRACK 04 AUDIO
TITLE "Motorider"
PERFORMER "Revenge"
FLAGS DCP
INDEX 01 13:00:64
TRACK 05 AUDIO
TITLE "Beer Maniacs"
PERFORMER "Revenge"
FLAGS DCP
INDEX 01 17:57:73
TRACK 06 AUDIO
TITLE "The Demented"
PERFORMER "Revenge"
FLAGS DCP
INDEX 01 22:22:49
TRACK 07 AUDIO
TITLE "Speedkiller"
PERFORMER "Revenge"
FLAGS DCP
INDEX 01 26:04:33
TRACK 08 AUDIO
TITLE "Mutant Rat"
PERFORMER "Revenge"
FLAGS DCP
INDEX 01 29:44:52
TRACK 09 AUDIO
TITLE "Bloody Revenge (Death Sentence Version)"
PERFORMER "Revenge"
FLAGS DCP
INDEX 01 33:13:66
TRACK 10 AUDIO
TITLE "After The Storm Of Steel And Hate (Outro)"
PERFORMER "Revenge"
FLAGS DCP
INDEX 01 37:57:16
TRACK 11 AUDIO
TITLE "Bang Your Head"
PERFORMER "Revenge"
FLAGS DCP
INDEX 01 39:23:37
TRACK 12 AUDIO
TITLE "Whipping Death"
PERFORMER "Revenge"
FLAGS DCP
INDEX 01 43:39:01
TRACK 13 AUDIO
TITLE "The Tombstones Screams"
PERFORMER "Revenge"
FLAGS DCP
INDEX 01 46:25:49
TRACK 14 AUDIO
TITLE "Metal Warriors (New Speed Version)"
PERFORMER "Revenge"
FLAGS DCP
INDEX 01 50:21:04

"Log"
Exact Audio Copy V1.1 from 23. June 2015

Отчёт EAC об извлечении, выполненном 28. сентября 2016, 10:34

Revenge / Death Sentence

Дисковод: HL-DT-STDVDRAM GTA0N Adapter: 1 ID: 0

Режим чтения : Достоверность
Использование точного потока : Да
Отключение кэша аудио : Да
Использование указателей C2 : Нет

Коррекция смещения при чтении : 102
Способность читать области Lead-in и Lead-out : Нет
Заполнение пропущенных сэмплов тишиной : Да
Удаление блоков с тишиной в начале и конце : Нет
При вычислениях CRC использовались нулевые сэмплы : Да
Интерфейс : Встроенный Win32-интерфейс для Win NT/2000

Выходной формат : Пользовательский кодировщик
Выбранный битрейт : 768 kBit/s
Качество : Высокий
Добавление ID3-тега : Нет
Утилита сжатия : C:\Program Files (x86)\Exact Audio Copy\FLAC\FLAC.EXE
Дополнительные параметры : -6 -V -T "ARTIST=%artist%" -T "TITLE=%title%" -T "ALBUM=%albumtitle%" -T "DATE=%year%" -T "TRACKNUMBER=%tracknr%" -T "GENRE=%genre%" -T "COMMENT=%comment%" -T "BAND=%albuminterpret%" -T "ALBUMARTIST=%albuminterpret%" -T "COMPOSER=%composer%" %haslyrics%--tag-from-file=LYRICS="%lyricsfile%"%haslyrics% -T "DISCNUMBER=%cdnumber%" -T "TOTALDISCS=%totalcds%" -T "TOTALTRACKS=%numtracks%" %hascover%--picture="%coverfile%"%hascover% %source% -o %dest%


TOC извлечённого CD

Трек | Старт | Длительность | Начальный сектор | Конечный сектор
---------------------------------------------------------------------
1 | 0:00.00 | 4:19.07 | 0 | 19431
2 | 4:19.07 | 4:01.63 | 19432 | 37569
3 | 8:20.70 | 4:39.69 | 37570 | 58563
4 | 13:00.64 | 4:57.09 | 58564 | 80847
5 | 17:57.73 | 4:24.51 | 80848 | 100698
6 | 22:22.49 | 3:41.59 | 100699 | 117332
7 | 26:04.33 | 3:40.19 | 117333 | 133851
8 | 29:44.52 | 3:29.14 | 133852 | 149540
9 | 33:13.66 | 4:43.25 | 149541 | 170790
10 | 37:57.16 | 1:26.21 | 170791 | 177261
11 | 39:23.37 | 4:15.39 | 177262 | 196425
12 | 43:39.01 | 2:46.48 | 196426 | 208923
13 | 46:25.49 | 3:55.30 | 208924 | 226578
14 | 50:21.04 | 5:12.46 | 226579 | 250024


Характеристики диапазона извлечения и сообщения об ошибках

Выбранный диапазон

Имя файла C:\Users\магазин\Music\Revenge - Death Sentence.wav

Пиковый уровень 100.0 %
Скорость извлечения 4.1 X
Качество диапазона 100.0 %
CRC копии 086E8243
Копирование... OK

Ошибок не произошло


AccurateRip: сводка

Трек 1 отсутствует в базе данных
Трек 2 отсутствует в базе данных
Трек 3 отсутствует в базе данных
Трек 4 отсутствует в базе данных
Трек 5 отсутствует в базе данных
Трек 6 отсутствует в базе данных
Трек 7 отсутствует в базе данных
Трек 8 отсутствует в базе данных
Трек 9 отсутствует в базе данных
Трек 10 отсутствует в базе данных
Трек 11 отсутствует в базе данных
Трек 12 отсутствует в базе данных
Трек 13 отсутствует в базе данных
Трек 14 отсутствует в базе данных

Ни одного трека нет в базе AccurateRip

Конец отчёта

---- CUETools DB Plugin V2.1.6

[CTDB TOCID: FhewRw.MVQFI7SaKeNm6WYM4UP4-] found
Submit result: FhewRw.MVQFI7SaKeNm6WYM4UP4- has been confirmed
Track | CTDB Status
1 | (2/2) Accurately ripped
2 | (2/2) Accurately ripped
3 | (2/2) Accurately ripped
4 | (2/2) Accurately ripped
5 | (2/2) Accurately ripped
6 | (2/2) Accurately ripped
7 | (2/2) Accurately ripped
8 | (2/2) Accurately ripped
9 | (2/2) Accurately ripped
10 | (2/2) Accurately ripped
11 | (2/2) Accurately ripped
12 | (2/2) Accurately ripped
13 | (2/2) Accurately ripped
14 | (2/2) Accurately ripped


Death Sentence


Top
 Profile  
 
 
PostPosted: 30 Sep 2016 
Генеральный thrasher
User avatar
Joined: 03 Oct 2008
Posts: 3719
Lоcаtion: Ханты-Мансийский АО
Age: 44
Name: Сергей
Image

Year:2011 (2012 Re-Issue)
Style:Speed / Heavy Metal
Country:Colombia
Archive:Flac+Cue+Log+Scans
Size:272Mb
Source:my CD
Label:Kill Again Records

Tracklist:
01. Intro 00:15
02. Hell Avenger (Let's Go to Hell and There Hail to Satan) 04:16
03. Speed Metal To The Bone 04:23
04. Plague Of Death 03:46
05. Metal Rules My Life 03:42
06. No Speed Limit For Destruction 03:49
07. Addiction And Obsession 04:12
08. Satan's Warriors 03:45
09. Fire Attack 04:20

"Cue"
REM GENRE "Speed/Heavy Metal"
REM DATE 2011
REM DISCID 73079C09
REM COMMENT "ExactAudioCopy v1.1"
PERFORMER "Revenge"
TITLE "Metal Is: Addiction And Obsession"
FILE "Revenge - Metal Is- Addiction And Obsession.flac" WAVE
TRACK 01 AUDIO
TITLE "Intro"
PERFORMER "Revenge"
FLAGS DCP
INDEX 01 00:00:00
TRACK 02 AUDIO
TITLE "Hell Avenger (Let's Go to Hell and There Hail to Satan)"
PERFORMER "Revenge"
FLAGS DCP
INDEX 01 00:15:33
TRACK 03 AUDIO
TITLE "Speed Metal To The Bone"
PERFORMER "Revenge"
FLAGS DCP
INDEX 01 04:31:00
TRACK 04 AUDIO
TITLE "Plague Of Death"
PERFORMER "Revenge"
FLAGS DCP
INDEX 00 08:53:69
INDEX 01 08:53:70
TRACK 05 AUDIO
TITLE "Metal Rules My Life"
PERFORMER "Revenge"
FLAGS DCP
INDEX 01 12:39:66
TRACK 06 AUDIO
TITLE "No Speed Limit For Destruction"
PERFORMER "Revenge"
FLAGS DCP
INDEX 01 16:21:71
TRACK 07 AUDIO
TITLE "Addiction And Obsession"
PERFORMER "Revenge"
FLAGS DCP
INDEX 00 20:11:20
INDEX 01 20:11:21
TRACK 08 AUDIO
TITLE "Satan's Warriors"
PERFORMER "Revenge"
FLAGS DCP
INDEX 00 24:22:61
INDEX 01 24:22:62
TRACK 09 AUDIO
TITLE "Fire Attack"
PERFORMER "Revenge"
FLAGS DCP
INDEX 01 28:07:67

"Log"
Exact Audio Copy V1.1 from 23. June 2015

Отчёт EAC об извлечении, выполненном 28. сентября 2016, 10:15

Revenge / Metal Is: Addiction And Obsession

Дисковод: HL-DT-STDVDRAM GTA0N Adapter: 1 ID: 0

Режим чтения : Достоверность
Использование точного потока : Да
Отключение кэша аудио : Да
Использование указателей C2 : Нет

Коррекция смещения при чтении : 102
Способность читать области Lead-in и Lead-out : Нет
Заполнение пропущенных сэмплов тишиной : Да
Удаление блоков с тишиной в начале и конце : Нет
При вычислениях CRC использовались нулевые сэмплы : Да
Интерфейс : Встроенный Win32-интерфейс для Win NT/2000

Выходной формат : Пользовательский кодировщик
Выбранный битрейт : 768 kBit/s
Качество : Высокий
Добавление ID3-тега : Нет
Утилита сжатия : C:\Program Files (x86)\Exact Audio Copy\FLAC\FLAC.EXE
Дополнительные параметры : -6 -V -T "ARTIST=%artist%" -T "TITLE=%title%" -T "ALBUM=%albumtitle%" -T "DATE=%year%" -T "TRACKNUMBER=%tracknr%" -T "GENRE=%genre%" -T "COMMENT=%comment%" -T "BAND=%albuminterpret%" -T "ALBUMARTIST=%albuminterpret%" -T "COMPOSER=%composer%" %haslyrics%--tag-from-file=LYRICS="%lyricsfile%"%haslyrics% -T "DISCNUMBER=%cdnumber%" -T "TOTALDISCS=%totalcds%" -T "TOTALTRACKS=%numtracks%" %hascover%--picture="%coverfile%"%hascover% %source% -o %dest%


TOC извлечённого CD

Трек | Старт | Длительность | Начальный сектор | Конечный сектор
---------------------------------------------------------------------
1 | 0:00.00 | 0:15.33 | 0 | 1157
2 | 0:15.33 | 4:15.42 | 1158 | 20324
3 | 4:31.00 | 4:22.70 | 20325 | 40044
4 | 8:53.70 | 3:45.71 | 40045 | 56990
5 | 12:39.66 | 3:42.05 | 56991 | 73645
6 | 16:21.71 | 3:49.25 | 73646 | 90845
7 | 20:11.21 | 4:11.41 | 90846 | 109711
8 | 24:22.62 | 3:45.05 | 109712 | 126591
9 | 28:07.67 | 4:20.11 | 126592 | 146102


Характеристики диапазона извлечения и сообщения об ошибках

Выбранный диапазон

Имя файла C:\Users\магазин\Music\Revenge - Metal Is- Addiction And Obsession.wav

Пиковый уровень 100.0 %
Скорость извлечения 3.6 X
Качество диапазона 100.0 %
CRC копии 141C30DA
Копирование... OK

Ошибок не произошло


AccurateRip: сводка

Трек 1 отсутствует в базе данных
Трек 2 отсутствует в базе данных
Трек 3 отсутствует в базе данных
Трек 4 отсутствует в базе данных
Трек 5 отсутствует в базе данных
Трек 6 отсутствует в базе данных
Трек 7 отсутствует в базе данных
Трек 8 отсутствует в базе данных
Трек 9 отсутствует в базе данных

Ни одного трека нет в базе AccurateRip

Конец отчёта

---- CUETools DB Plugin V2.1.6

[CTDB TOCID: CFIUDzqtpZpIc9aQjpKTWkpnDZM-] found
Submit result: CFIUDzqtpZpIc9aQjpKTWkpnDZM- has been confirmed
Track | CTDB Status
1 | (3/3) Accurately ripped
2 | (3/3) Accurately ripped
3 | (3/3) Accurately ripped
4 | (3/3) Accurately ripped
5 | (3/3) Accurately ripped
6 | (3/3) Accurately ripped
7 | (3/3) Accurately ripped
8 | (3/3) Accurately ripped
9 | (3/3) Accurately ripped


Metal Is: Addiction And Obsession


Top
 Profile  
 
 
PostPosted: 30 Sep 2016 
дядя Миша
User avatar
Joined: 17 Oct 2008
Posts: 3170
Lоcаtion: USSR
Age: 56
Name: Khy
Cерега ты Кобру колумбийскую не брал?


Top
 Profile  
 
 
PostPosted: 30 Sep 2016 
Генеральный thrasher
User avatar
Joined: 03 Oct 2008
Posts: 3719
Lоcаtion: Ханты-Мансийский АО
Age: 44
Name: Сергей
Нет,не брал.


Top
 Profile  
 
 
PostPosted: 30 Sep 2016 
Прокъмитолист
User avatar
Joined: 12 Aug 2007
Posts: 6593
Lоcаtion: Санктъ-Петербуркъ
Age: 51
Name: Олекъ
:thanx:

_________________
прокъметол - это музыко, от которово есть прок (ы)


Top
 Profile  
 
 
PostPosted: 30 Sep 2016 
Прокъмитолист
User avatar
Joined: 12 Aug 2007
Posts: 6593
Lоcаtion: Санктъ-Петербуркъ
Age: 51
Name: Олекъ
:thanx:

_________________
прокъметол - это музыко, от которово есть прок (ы)


Top
 Profile  
 
 
PostPosted: 30 Sep 2016 
Я набрал 1000 сообщений!
Joined: 09 Jul 2008
Posts: 3002
Age: 46
Name: Сергей
в ревенжах (как и в кобрах) уже запутался ) но именно этот ревенж вроде хорош


Top
 Profile  
 
 
PostPosted: 30 Sep 2016 
Metal Collector
User avatar
Joined: 16 Nov 2008
Posts: 1257
Lоcаtion: Химки
Age: 36
Name: Андрей
Это хороший Revenge. Спасибо, Сергей!


Top
 Profile E-mail  
 
Display posts from previous:  Sort by  
Post new topic Reply to topic  [ 109 posts ]  Go to page 1, 2, 3, 4, 5, 6  Next

All times are UTC + 3 hours


Who is online

Users browsing this forum: No registered users and 2 guests


You cannot post new topics in this forum
You cannot reply to topics in this forum
You cannot edit your posts in this forum
You cannot delete your posts in this forum
You cannot post attachments in this forum

Search for:
Яндекс.Метрика
cron
Powered by phpBB © 2000, 2002, 2005, 2007 phpBB Group