\m/ 80's metal \m/

Информационно-аналитический форум "80 см пыли" (In Search We Trust) "У нас никто никуда не спешит"
Me For You - http://me-4u.com
It is currently 16 Dec 2018

All times are UTC + 3 hours

Spoiler
Chat - temporary registration for foreign users (please leave your application here)







Post new topic Reply to topic  [ 54 posts ]  Go to page Previous  1, 2, 3  Next
Author Message
 
PostPosted: 13 Jan 2016 
Я набрал 1000 сообщений!
Joined: 21 Nov 2009
Posts: 1407
Lоcаtion: praga
Age: 48
Name: Сергей
Running Wild - Gates To Purgatory.(Lemon records)
Залил для сравнения с оригиналом.Очень симпатичная внутри книжечка. :kro:

Image

01. Victim Of State Power (3:41)
02. Black Demon (4:29)
03. Preacher (4:26)
04. Soldiers Of Hell (3:28)
05. Diabolic Force (5:05)
06. Adrian S.O.S. (2:55)
07. Genghis Khan (4:14)
08. Prisoner Of Our Time (5:31)
09. Walpurgis Night (Bonus Track) (4:40)
10. Satan (Bonus Track) (4:10)


Rock'n Rolf-Vocals (lead), Guitars
Preacher-Guitars, Vocals
Stephan-Bass
Hasche-Drums

Image

Image


Last edited by sin2 on 13 Jan 2016, edited 2 times in total.

Top
 Profile E-mail  
 
 
PostPosted: 14 Jan 2016 
Рарник и трушник
User avatar
Joined: 25 Dec 2009
Posts: 8481
Lоcаtion: Москва
Age: 53
Name: Виталий
Вау, спасибо Ник! :thanx: Я ж помнил, что где-то на пиратке был, но не помнил где. :pardon:


Top
 Profile  
 
 
PostPosted: 14 Jan 2016 
Персональный статус
Joined: 05 Feb 2011
Posts: 345
Lоcаtion: Russia, Novosibirsk
Age: 44
Name: Андрей
Меня вот такой вопрос вдруг заинтересовал: были ли изданы на цидах эти треки:
Death Metal split:
1. Running Wild - Iron Heads 03:38
2. Running Wild - Bones to Ashes 05:07

Rock from Hell - German Metal Attack (за исключением альбома Gates to Purgatory, там время треков другое):
9. Running Wild - Chains & Leather 05:10
10. Running Wild - Adrian 02:44

А если издавались, то где, на каких изданиях? :umnik:

Iron Heads и Bones To Ashes идут бонусами к ремастеру Masquerade.
А вот оба трека из Rock From Hell официально на CD не издавались.
PS Black Demons On Stage не стОит учитывать, ибо бутлег ;)


Top
 Profile E-mail  
 
 
PostPosted: 14 Jan 2016 
5-speed satisfactor
User avatar
Joined: 16 Feb 2009
Posts: 3635
Lоcаtion: New York, USA
Age: 40
Name: Leonid
Меня вот такой вопрос вдруг заинтересовал: были ли изданы на цидах эти треки:
Death Metal split:
1. Running Wild - Iron Heads 03:38
2. Running Wild - Bones to Ashes 05:07

А если издавались, то где, на каких изданиях? :umnik:


http://www.discogs.com/Running-Wild-Mas ... se/4053157

Говномастер.

_________________
Death rules! Metal to all who oppose!


Top
 Profile  
 
 
PostPosted: 14 Jan 2016 
5-speed satisfactor
User avatar
Joined: 16 Feb 2009
Posts: 3635
Lоcаtion: New York, USA
Age: 40
Name: Leonid
Кстати, Нойзовский первопресс оказался лучшим по звуку, даже японский двойник - туфта оказался. То же самое касается и 1985-го - Нойзовский первопресс самый лучший. А вот 88-й, как и говорил - японец лучше. А вот 89-й - первопресс Нойза лучше. Вот такая хрень. :pardon:


Можно поподробнее с ссылками на Discogs?

Вот этот лучше?

Герман Металл Аттака у меня винильчик почти неигранный...

_________________
Death rules! Metal to all who oppose!


Top
 Profile  
 
 
PostPosted: 14 Jan 2016 
5-speed satisfactor
User avatar
Joined: 16 Feb 2009
Posts: 3635
Lоcаtion: New York, USA
Age: 40
Name: Leonid
Scatterbrain wrote:
Некрасиво и некультурно как-то песня завершилась.

В теме по минику было. Полная версия есть на японском двухальбомном сплите 91 года, есть в дискографии на рутре.


Здесь полная?

_________________
Death rules! Metal to all who oppose!


Top
 Profile  
 
 
PostPosted: 14 Jan 2016 
Персональный статус
Joined: 05 Feb 2011
Posts: 345
Lоcаtion: Russia, Novosibirsk
Age: 44
Name: Андрей
Scatterbrain wrote:
Некрасиво и некультурно как-то песня завершилась.

В теме по минику было. Полная версия есть на японском двухальбомном сплите 91 года, есть в дискографии на рутре.


Здесь полная?

Да, именно здесь


Top
 Profile E-mail  
 
 
PostPosted: 14 Jan 2016 
Рарник и трушник
User avatar
Joined: 25 Dec 2009
Posts: 8481
Lоcаtion: Москва
Age: 53
Name: Виталий
metaleonid wrote:
Вот этот лучше?

Да, Лёнь! Именно японец Port Royal (1993 г.) звучит лучше, чем Нойзо-первопресс. :vic:
metaleonid wrote:
Здесь полная?

Ага, именно этот японец 2 в 1-м имеет полную версию. :umnik:


Top
 Profile  
 
 
PostPosted: 14 Jan 2016 
Хиппей (support team)
User avatar
Joined: 30 Jul 2007
Posts: 108945
Lоcаtion: Киев (Kyiv, UA)
Age: 45
Name: Andrey
Scatterbrain wrote:
Некрасиво и некультурно как-то песня завершилась.

В теме по минику было. Полная версия есть на японском двухальбомном сплите 91 года, есть в дискографии на рутре.

:thanx:
А не знаешь, это уже пересвели запись в студии или технически так добавили кусочек?

_________________


Top
 Profile E-mail  
 
 
PostPosted: 14 Jan 2016 
Персональный статус
Joined: 05 Feb 2011
Posts: 345
Lоcаtion: Russia, Novosibirsk
Age: 44
Name: Андрей
Scatterbrain wrote:
Некрасиво и некультурно как-то песня завершилась.

В теме по минику было. Полная версия есть на японском двухальбомном сплите 91 года, есть в дискографии на рутре.

:thanx:
А не знаешь, это уже пересвели запись в студии или технически так добавили кусочек?

Не пересвели и не добавили. Япошки где-то надыбали полный мастер. На немецком варианте отчётливо слышится подмятая лента за несколько секунд до обрыва


Top
 Profile E-mail  
 
 
PostPosted: 14 Jan 2016 
\m/ 80 см сала \m/
User avatar
Joined: 12 Mar 2012
Posts: 2589
Age: 25
Name: Nick
У япошек тоже несильные провалы в нескольких местах - возможно, похимичили над лентой и сумели более-менее нормально оцифровать.

_________________
1990 AUROPHON BRAINSTORM (Germany) - lossless
1994 MAUSOLEUM CLASSIX (Belgium-Germany) - lossless
1998 VA - GRIM HARVEST - Complete Metal Massacre Volumes I-XII


Top
 Profile  
 
 
PostPosted: 14 Jan 2016 
Metal Collector
User avatar
Joined: 16 Nov 2008
Posts: 1230
Lоcаtion: Химки
Age: 35
Name: Андрей
Vitaly65, вопрос к тебе, как к человеку с правильным слухом. Какая из версий альбома Branded & Exiled звучит лучше - оригинал нойзовский или переиздание 2 in 1 японское (вместе с Gates)?


Top
 Profile E-mail  
 
 
PostPosted: 14 Jan 2016 
\m/ 80 см сала \m/
User avatar
Joined: 12 Mar 2012
Posts: 2589
Age: 25
Name: Nick
P.S. Кто не знал - Нойзовский пресс Branded & Exiled c пре-эмфазисом :oldman:
сue
Code:
REM GENRE "Heavy Metal"
REM DATE 1985
REM DISCID 5F086508
REM COMMENT "ExactAudioCopy v1.0b1"
CATALOG "N 0030-3"
PERFORMER "Running Wild"
TITLE "Branded And Exiled"
FILE "Running Wild - Branded And Exiled.flac" WAVE
  TRACK 01 AUDIO
    TITLE "Branded And Exiled"
    PERFORMER "Running Wild"
    FLAGS PRE
    INDEX 01 00:00:00
  TRACK 02 AUDIO
    TITLE "Gods Of Iron"
    PERFORMER "Running Wild"
    FLAGS PRE
    INDEX 01 03:53:62
  TRACK 03 AUDIO
    TITLE "Realm Of Shades"
    PERFORMER "Running Wild"
    FLAGS PRE
    INDEX 01 07:54:52
  TRACK 04 AUDIO
    TITLE "Mordor"
    PERFORMER "Running Wild"
    FLAGS PRE
    INDEX 01 12:24:15
  TRACK 05 AUDIO
    TITLE "Fight The Oppression"
    PERFORMER "Running Wild"
    FLAGS PRE
    INDEX 01 17:14:57
  TRACK 06 AUDIO
    TITLE "Evil Spirit"
    PERFORMER "Running Wild"
    FLAGS PRE
    INDEX 01 22:10:60
  TRACK 07 AUDIO
    TITLE "Marching To Die"
    PERFORMER "Running Wild"
    FLAGS PRE
    INDEX 01 25:31:07
  TRACK 08 AUDIO
    TITLE "Chains And Leather"
    PERFORMER "Running Wild"
    FLAGS PRE
    INDEX 01 30:07:37

_________________
1990 AUROPHON BRAINSTORM (Germany) - lossless
1994 MAUSOLEUM CLASSIX (Belgium-Germany) - lossless
1998 VA - GRIM HARVEST - Complete Metal Massacre Volumes I-XII


Top
 Profile  
 
 
PostPosted: 14 Jan 2016 
Рарник и трушник
User avatar
Joined: 25 Dec 2009
Posts: 8481
Lоcаtion: Москва
Age: 53
Name: Виталий
Everhard wrote:
Кто не знал - Нойзовский пресс Branded & Exiled c пре-эфазисом

Я не знал! :vic: Вот и лажанулся кстати. Теперь без сравнения цидов не обойтись.
Terrion wrote:
Какая из версий альбома Branded & Exiled звучит лучше - оригинал нойзовский или переиздание 2 in 1 японское

Чёта теперь не уверен. Слушая с прогового плейера (я на винампе) - Нойзовский первопресс лучше, чем японский двойник. Но вот как будет звучать на CD-плейере?
Ладно, оставим вопрос до вечера, не пожалею болвань, кину рип японцкий, послушаю и сравню.

Кстати Коль, вопрос, может знаешь:
если жечь болвань ImgBurn-ом в режиме "запись образа", то он же запишет и FLAGS PRE тоже? Ведь должен и обязан. Я знаю, что ЕАК запишет, но он блин флаки не пишет, надо изголяться, проще ImgBurn-ом. :vic:


Top
 Profile  
 
 
PostPosted: 14 Jan 2016 
Хиппей (support team)
User avatar
Joined: 30 Jul 2007
Posts: 108945
Lоcаtion: Киев (Kyiv, UA)
Age: 45
Name: Andrey
andytih wrote:
Не пересвели и не добавили. Япошки где-то надыбали полный мастер. На немецком варианте отчётливо слышится подмятая лента за несколько секунд до обрыва

Это твоя версия или факт?
А то, сдается мне, мастер-ленты были профуканы давно.

_________________


Top
 Profile E-mail  
 
 
PostPosted: 14 Jan 2016 
Хиппей (support team)
User avatar
Joined: 30 Jul 2007
Posts: 108945
Lоcаtion: Киев (Kyiv, UA)
Age: 45
Name: Andrey
Vitaly65 wrote:
Ладно, оставим вопрос до вечера, не пожалею болвань, кину рип японцкий, послушаю и сравню.

Кстати, а чего именно на CDR, на CDR-W звук не торт? :lloo:

_________________


Top
 Profile E-mail  
 
 
PostPosted: 14 Jan 2016 
Хиппей (support team)
User avatar
Joined: 30 Jul 2007
Posts: 108945
Lоcаtion: Киев (Kyiv, UA)
Age: 45
Name: Andrey
Vitaly65 wrote:
если жечь болвань ImgBurn-ом в режиме "запись образа", то он же запишет и FLAGS PRE тоже?

Кхм, насколько помню, ИмгБёрн пишет всё, и образы в том числе, в формате 1 к одному. Без потерь всяких, то бишь, и изменений.

_________________


Top
 Profile E-mail  
 
 
PostPosted: 14 Jan 2016 
5-speed satisfactor
User avatar
Joined: 16 Feb 2009
Posts: 3635
Lоcаtion: New York, USA
Age: 40
Name: Leonid
P.S. Кто не знал - Нойзовский пресс Branded & Exiled c пре-эмфазисом :oldman:
сue
Code:
REM GENRE "Heavy Metal"
REM DATE 1985
REM DISCID 5F086508
REM COMMENT "ExactAudioCopy v1.0b1"
CATALOG "N 0030-3"
PERFORMER "Running Wild"
TITLE "Branded And Exiled"
FILE "Running Wild - Branded And Exiled.flac" WAVE
  TRACK 01 AUDIO
    TITLE "Branded And Exiled"
    PERFORMER "Running Wild"
    FLAGS PRE
    INDEX 01 00:00:00
  TRACK 02 AUDIO
    TITLE "Gods Of Iron"
    PERFORMER "Running Wild"
    FLAGS PRE
    INDEX 01 03:53:62
  TRACK 03 AUDIO
    TITLE "Realm Of Shades"
    PERFORMER "Running Wild"
    FLAGS PRE
    INDEX 01 07:54:52
  TRACK 04 AUDIO
    TITLE "Mordor"
    PERFORMER "Running Wild"
    FLAGS PRE
    INDEX 01 12:24:15
  TRACK 05 AUDIO
    TITLE "Fight The Oppression"
    PERFORMER "Running Wild"
    FLAGS PRE
    INDEX 01 17:14:57
  TRACK 06 AUDIO
    TITLE "Evil Spirit"
    PERFORMER "Running Wild"
    FLAGS PRE
    INDEX 01 22:10:60
  TRACK 07 AUDIO
    TITLE "Marching To Die"
    PERFORMER "Running Wild"
    FLAGS PRE
    INDEX 01 25:31:07
  TRACK 08 AUDIO
    TITLE "Chains And Leather"
    PERFORMER "Running Wild"
    FLAGS PRE
    INDEX 01 30:07:37


вот и ни хрена себе. Не знал.... Как в том анекдоте: вы знаете, что тот профессор с 7ого этажа - гей? Фигась? Не знал. Вот еб*у уже 8 лет, не знал, что он профессор......

Блин, надо будет через sox.exe сделать. Или х. с ним. Он пересжат нереально сильно....

_________________
Death rules! Metal to all who oppose!


Top
 Profile  
 
 
PostPosted: 14 Jan 2016 
Персональный статус
Joined: 05 Feb 2011
Posts: 345
Lоcаtion: Russia, Novosibirsk
Age: 44
Name: Андрей
andytih wrote:
Не пересвели и не добавили. Япошки где-то надыбали полный мастер. На немецком варианте отчётливо слышится подмятая лента за несколько секунд до обрыва

Это твоя версия или факт?
А то, сдается мне, мастер-ленты были профуканы давно.

Согласен - не факт, что именно мастер использован. Но исходники разные, судя по провалам плёночным.


Top
 Profile E-mail  
 
 
PostPosted: 14 Jan 2016 
\m/ 80 см сала \m/
User avatar
Joined: 12 Mar 2012
Posts: 2589
Age: 25
Name: Nick
Vitaly65, хз, только ЕАСом прожигал :pardon:
На рутрекере вроде как только ЕАСом советуют пользоваться для этого дела.

_________________
1990 AUROPHON BRAINSTORM (Germany) - lossless
1994 MAUSOLEUM CLASSIX (Belgium-Germany) - lossless
1998 VA - GRIM HARVEST - Complete Metal Massacre Volumes I-XII


Top
 Profile  
 
 
PostPosted: 14 Jan 2016 
Рарник и трушник
User avatar
Joined: 25 Dec 2009
Posts: 8481
Lоcаtion: Москва
Age: 53
Name: Виталий
Everhard wrote:
олько ЕАСом прожигал
На рутрекере вроде как только ЕАСом советуют пользоваться для этого дела.

Это да, но этого нет! :benya:
Ник, будь ласка, если знаешь, кинь сцылочку, как образ с флаками ЕАК-ом прожечь. Он же жгёт тока вавы. :vic:
Scatterbrain wrote:
ИмгБёрн пишет всё, и образы в том числе, в формате 1 к одному. Без потерь всяких, то бишь, и изменений.

Да я тоже так считаю, но мало ли. Проверить конечно можно - закатать образ на болвань, а потом снова рипнуть ЕАК-ом и посмотрет куй - будет ли там FLAGS PRE.
Но уж больно лень возиться. :vic:
metaleonid wrote:
Как в том анекдоте: вы знаете, что тот профессор с 7ого этажа - гей? Фигась? Не знал. Вот еб*у уже 8 лет, не знал, что он профессор......

Хороший анекдот! :benya:


Top
 Profile  
 
Display posts from previous:  Sort by  
Post new topic Reply to topic  [ 54 posts ]  Go to page Previous  1, 2, 3  Next

All times are UTC + 3 hours


Who is online

Users browsing this forum: No registered users and 2 guests


You cannot post new topics in this forum
You cannot reply to topics in this forum
You cannot edit your posts in this forum
You cannot delete your posts in this forum
You cannot post attachments in this forum

Search for:
Яндекс.Метрика
Powered by phpBB © 2000, 2002, 2005, 2007 phpBB Group