\m/ 80's metal \m/

Информационно-аналитический форум "80 см пыли" (In Search We Trust) "У нас никто никуда не спешит"
Me For You - http://me-4u.com
It is currently 13 Dec 2018

All times are UTC + 3 hours

Spoiler
Chat - temporary registration for foreign users (please leave your application here)







Post new topic Reply to topic  [ 9 posts ] 
Author Message
 
PostPosted: 16 Nov 2015 
Генеральный thrasher
User avatar
Joined: 03 Oct 2008
Posts: 3535
Lоcаtion: Ханты-Мансийский АО
Age: 43
Name: Сергей
Эти трэшеры из Киото играют с 1982 года.Правда данный альбом всего второй по счёту полнометражник.

Image

Year:2013
Style:Thrash Metal
Country:Japan
Archive:Flac+Cue+Log+Scans
Size:290Mb+572Mb
Source:my CD
Label:Self-Release

CD 1:
01.Chaos Reigns 06:29
02.Meifumado 04:58
03.Suspicion and Fear 04:40
04.仮面‐Kamen‐ 01:57
05.Dark Dog 02:50
06.Gggwwwaaarrrhhh 05:33
07.49-50 01:29
08.Motor Psycho Gang 03:53
09.Black Belt 04:37

CD 2:
01.Screaming Murder 04:38
02.Shooting War 02:38
03.Black Horse 07:04
04.Do You Wanna Get Sticked? 03:46
05.Fight It Out! 04:47
06.Donald Duck 02:21
07.Wolf Spider 04:22
08.Barricade 06:25
09.Underground 04:34
10.Electric Brain 05:58
11.The Rattlesnake Rules - Gunslinger 07:02
12.The Way of Life 05:21
13.Sudden Impulse 05:44
14.The Triffids 06:36
15.Iron Skies 06:27

"Cue 1"
REM GENRE "Thrash Metal"
REM DATE 2013
REM DISCID 89088509
REM COMMENT "ExactAudioCopy v0.99pb5"
PERFORMER "Raging Fury "
TITLE "Black Belt CD 1"
FILE "Raging Fury - Black Belt CD 1.flac" WAVE
TRACK 01 AUDIO
TITLE "Chaos Reigns"
PERFORMER "Raging Fury "
INDEX 01 00:00:00
TRACK 02 AUDIO
TITLE "Meifumado"
PERFORMER "Raging Fury "
INDEX 01 06:28:26
TRACK 03 AUDIO
TITLE "Suspicion And Fear"
PERFORMER "Raging Fury "
INDEX 01 11:25:52
TRACK 04 AUDIO
TITLE "仮面‐Kamen‐"
PERFORMER "Raging Fury "
INDEX 01 16:05:42
TRACK 05 AUDIO
TITLE "Dark Dog"
PERFORMER "Raging Fury "
INDEX 01 18:02:35
TRACK 06 AUDIO
TITLE "Gggwwwaaarrrhhh"
PERFORMER "Raging Fury "
INDEX 01 20:51:57
TRACK 07 AUDIO
TITLE "49-50"
PERFORMER "Raging Fury "
INDEX 01 26:24:04
TRACK 08 AUDIO
TITLE "Motor Psycho Gang"
PERFORMER "Raging Fury "
INDEX 01 27:53:03
TRACK 09 AUDIO
TITLE "Black Belt "
PERFORMER "Raging Fury "
INDEX 01 31:45:51

"Cue 2"
REM GENRE "Thrash Metal"
REM DATE 2013
REM DISCID DB122F0F
REM COMMENT "ExactAudioCopy v0.99pb5"
PERFORMER "Raging Fury"
TITLE "Black Belt CD 2"
FILE "Raging Fury - Black Belt CD 2.flac" WAVE
TRACK 01 AUDIO
TITLE "Screaming Murder"
PERFORMER "Raging Fury"
INDEX 01 00:00:00
TRACK 02 AUDIO
TITLE "Shooting War"
PERFORMER "Raging Fury"
INDEX 01 04:37:34
TRACK 03 AUDIO
TITLE "Black Horse"
PERFORMER "Raging Fury"
INDEX 01 07:14:50
TRACK 04 AUDIO
TITLE "Do You Wanna Get Sticked?"
PERFORMER "Raging Fury"
INDEX 01 14:17:69
TRACK 05 AUDIO
TITLE "Fight It Out!"
PERFORMER "Raging Fury"
INDEX 01 18:03:32
TRACK 06 AUDIO
TITLE "Donald Duck"
PERFORMER "Raging Fury"
INDEX 01 22:50:20
TRACK 07 AUDIO
TITLE "Wolf Spider"
PERFORMER "Raging Fury"
INDEX 01 25:10:49
TRACK 08 AUDIO
TITLE "Barricade"
PERFORMER "Raging Fury"
INDEX 01 29:31:57
TRACK 09 AUDIO
TITLE "Underground"
PERFORMER "Raging Fury"
INDEX 01 35:55:61
TRACK 10 AUDIO
TITLE "Electric Brain"
PERFORMER "Raging Fury"
INDEX 01 40:29:19
TRACK 11 AUDIO
TITLE "The Rattlesnake Rules-Gunslinger"
PERFORMER "Raging Fury"
INDEX 01 46:26:24
TRACK 12 AUDIO
TITLE "The Way Of Life"
PERFORMER "Raging Fury"
INDEX 01 53:27:71
TRACK 13 AUDIO
TITLE "Sudden Impulse"
PERFORMER "Raging Fury"
INDEX 01 58:48:60
TRACK 14 AUDIO
TITLE "Triffids"
PERFORMER "Raging Fury"
INDEX 01 64:32:52
TRACK 15 AUDIO
TITLE "Iron Skies"
PERFORMER "Raging Fury"
INDEX 01 71:08:34

"Log 1"
Exact Audio Copy V0.99 prebeta 5 from 4. May 2009

Отчёт EAC об извлечении, выполненном 14. сентября 2015, 13:32

Raging Fury / Black Belt CD 1

Дисковод: MATSHITADVD-RAM UJ8A0AS Adapter: 0 ID: 1

Режим чтения : Достоверность
Использование точного потока : Да
Отключение кэша аудио : Да
Использование указателей C2 : Нет

Коррекция смещения при чтении : 102
Способность читать области Lead-in и Lead-out : Нет
Заполнение пропущенных сэмплов тишиной : Да
Удаление блоков с тишиной в начале и конце : Нет
При вычислениях CRC использовались нулевые сэмплы : Да
Интерфейс : Встроенный Win32-интерфейс для Win NT/2000

Выходной формат : Пользовательский кодировщик
Выбранный битрейт : 1024 kBit/s
Качество : Высокий
Добавление ID3-тэга : Нет
Утилита сжатия : C:\Program Files\Exact Audio Copy\FLAC\FLAC.EXE
Дополнительные параметры : -6 -V -T "ARTIST=%a" -T "TITLE=%t" -T "ALBUM=%g" -T "DATE=%y" -T "TRACKNUMBER=%n" -T "GENRE=%m" -T "COMMENT=%e" %s -o %d


TOC извлечённого CD

Трек | Старт | Длительность | Начальный сектор | Конечный сектор
---------------------------------------------------------------------
1 | 0:00.00 | 6:28.26 | 0 | 29125
2 | 6:28.26 | 4:57.26 | 29126 | 51426
3 | 11:25.52 | 4:39.65 | 51427 | 72416
4 | 16:05.42 | 1:56.68 | 72417 | 81184
5 | 18:02.35 | 2:49.22 | 81185 | 93881
6 | 20:51.57 | 5:32.22 | 93882 | 118803
7 | 26:24.04 | 1:28.74 | 118804 | 125477
8 | 27:53.03 | 3:52.48 | 125478 | 142925
9 | 31:45.51 | 4:36.12 | 142926 | 163637


Характеристики диапазона извлечения и сообщения об ошибках

Выбранный диапазон

Имя файла C:\Users\эксперт\Music\Raging Fury - Black Belt CD 1.wav

Пиковый уровень 100.0 %
Качество диапазона 100.0 %
CRC копии 4336171B
Копирование... OK

Ошибок не произошло


AccurateRip: сводка

Трек 1 нет в базе данных
Трек 2 нет в базе данных
Трек 3 нет в базе данных
Трек 4 нет в базе данных
Трек 5 нет в базе данных
Трек 6 нет в базе данных
Трек 7 нет в базе данных
Трек 8 нет в базе данных
Трек 9 нет в базе данных

Ни одного трека нет в базе AccurateRip

Конец отчёта

"Log 2"
Exact Audio Copy V0.99 prebeta 5 from 4. May 2009

Отчёт EAC об извлечении, выполненном 14. сентября 2015, 14:59

Raging Fury / Black Belt CD 2

Дисковод: MATSHITADVD-RAM UJ8A0AS Adapter: 0 ID: 1

Режим чтения : Достоверность
Использование точного потока : Да
Отключение кэша аудио : Да
Использование указателей C2 : Нет

Коррекция смещения при чтении : 102
Способность читать области Lead-in и Lead-out : Нет
Заполнение пропущенных сэмплов тишиной : Да
Удаление блоков с тишиной в начале и конце : Нет
При вычислениях CRC использовались нулевые сэмплы : Да
Интерфейс : Встроенный Win32-интерфейс для Win NT/2000

Выходной формат : Пользовательский кодировщик
Выбранный битрейт : 1024 kBit/s
Качество : Высокий
Добавление ID3-тэга : Нет
Утилита сжатия : C:\Program Files\Exact Audio Copy\FLAC\FLAC.EXE
Дополнительные параметры : -6 -V -T "ARTIST=%a" -T "TITLE=%t" -T "ALBUM=%g" -T "DATE=%y" -T "TRACKNUMBER=%n" -T "GENRE=%m" -T "COMMENT=%e" %s -o %d


TOC извлечённого CD

Трек | Старт | Длительность | Начальный сектор | Конечный сектор
---------------------------------------------------------------------
1 | 0:00.00 | 4:37.34 | 0 | 20808
2 | 4:37.34 | 2:37.16 | 20809 | 32599
3 | 7:14.50 | 7:03.19 | 32600 | 64343
4 | 14:17.69 | 3:45.38 | 64344 | 81256
5 | 18:03.32 | 4:46.63 | 81257 | 102769
6 | 22:50.20 | 2:20.29 | 102770 | 113298
7 | 25:10.49 | 4:21.08 | 113299 | 132881
8 | 29:31.57 | 6:24.04 | 132882 | 161685
9 | 35:55.61 | 4:33.33 | 161686 | 182193
10 | 40:29.19 | 5:57.05 | 182194 | 208973
11 | 46:26.24 | 7:01.47 | 208974 | 240595
12 | 53:27.71 | 5:20.64 | 240596 | 264659
13 | 58:48.60 | 5:43.67 | 264660 | 290451
14 | 64:32.52 | 6:35.57 | 290452 | 320133
15 | 71:08.34 | 6:26.62 | 320134 | 349145


Характеристики диапазона извлечения и сообщения об ошибках

Выбранный диапазон

Имя файла C:\Users\эксперт\Music\Raging Fury - Black Belt CD 2.wav

Пиковый уровень 99.5 %
Качество диапазона 100.0 %
CRC копии F2B547CF
Копирование... OK

Ошибок не произошло


AccurateRip: сводка

Трек 1 нет в базе данных
Трек 2 нет в базе данных
Трек 3 нет в базе данных
Трек 4 нет в базе данных
Трек 5 нет в базе данных
Трек 6 нет в базе данных
Трек 7 нет в базе данных
Трек 8 нет в базе данных
Трек 9 нет в базе данных
Трек 10 нет в базе данных
Трек 11 нет в базе данных
Трек 12 нет в базе данных
Трек 13 нет в базе данных
Трек 14 нет в базе данных
Трек 15 нет в базе данных

Ни одного трека нет в базе AccurateRip

Конец отчёта


Black Belt CD1
Black Belt CD2


Top
 Profile  
 
 
PostPosted: 16 Nov 2015 
Прокъмитолист
User avatar
Joined: 12 Aug 2007
Posts: 6513
Lоcаtion: Санктъ-Петербуркъ
Age: 51
Name: Олекъ
утащу. спасибо, Серёг! :thanx:

_________________
прокъметол - это музыко, от которово есть прок (ы)


Top
 Profile  
 
 
PostPosted: 16 Nov 2015 
Хиппей (support team)
User avatar
Joined: 30 Jul 2007
Posts: 108849
Lоcаtion: Киев (Kyiv, UA)
Age: 45
Name: Andrey
:thanx:

_________________


Top
 Profile E-mail  
 
 
PostPosted: 17 Nov 2015 
Рарник и трушник
User avatar
Joined: 25 Dec 2009
Posts: 8477
Lоcаtion: Москва
Age: 53
Name: Виталий
Трешеры-каратисты? Япошкина мама! :benya:


Top
 Profile  
 
 
PostPosted: 17 Nov 2015 
Генеральный thrasher
User avatar
Joined: 03 Oct 2008
Posts: 3535
Lоcаtion: Ханты-Мансийский АО
Age: 43
Name: Сергей
Насчёт каратистов не знаю,Виталий.Что тебя удивляет?У япошек много трэш-команд.


Top
 Profile  
 
 
PostPosted: 17 Nov 2015 
Рарник и трушник
User avatar
Joined: 25 Dec 2009
Posts: 8477
Lоcаtion: Москва
Age: 53
Name: Виталий
thorbeorn wrote:
Насчёт каратистов не знаю

Блэк Белт - этож "черный пояс" у каратэков.
Не, ничего, нормуль всё, послухаю, не встречал раньше.


Top
 Profile  
 
 
PostPosted: 17 Nov 2015 
Генеральный thrasher
User avatar
Joined: 03 Oct 2008
Posts: 3535
Lоcаtion: Ханты-Мансийский АО
Age: 43
Name: Сергей
Найти бы в качестве их одноименный дебютник 1992 года.Но наверное нереально... :vic:


Top
 Profile  
 
 
PostPosted: 17 Nov 2015 
Я набрал 1000 сообщений!
Joined: 09 Jul 2008
Posts: 2473
Age: 45
Name: Сергей
есть демка 1987 в 160 )


Top
 Profile  
 
 
PostPosted: 17 Nov 2015 
Генеральный thrasher
User avatar
Joined: 03 Oct 2008
Posts: 3535
Lоcаtion: Ханты-Мансийский АО
Age: 43
Name: Сергей
Второй диск как раз из демок и состоит периода 1986-1993 годов.


Top
 Profile  
 
Display posts from previous:  Sort by  
Post new topic Reply to topic  [ 9 posts ] 

All times are UTC + 3 hours


Who is online

Users browsing this forum: No registered users and 1 guest


You cannot post new topics in this forum
You cannot reply to topics in this forum
You cannot edit your posts in this forum
You cannot delete your posts in this forum
You cannot post attachments in this forum

Search for:
Яндекс.Метрика
Powered by phpBB © 2000, 2002, 2005, 2007 phpBB Group