\m/ 80's metal \m/

Информационно-аналитический форум "80 см пыли" (In Search We Trust) "У нас никто никуда не спешит"
Me For You - http://me-4u.com
It is currently 16 Dec 2018

All times are UTC + 3 hours

Spoiler
Chat - temporary registration for foreign users (please leave your application here)







Post new topic Reply to topic  [ 2 posts ] 
Author Message
 
PostPosted: 18 Sep 2015 
Генеральный thrasher
User avatar
Joined: 03 Oct 2008
Posts: 3537
Lоcаtion: Ханты-Мансийский АО
Age: 43
Name: Сергей
Многое выкладываю у Оксаны и на трэкере в последнее время.Для тех,кто туда не заглядывает,дублирую сюда.Надеюсь админ не будет против!

Image

Year:2005
Style:Thrash Metal
Country:Spain
Archive:Flac+Cue+Log+Scans
Size:157Mb
Source:my CD
Label:Witches Brew
Catalog ID:BREW014

Tracklist:
01. Desperta Ferro 02:21
02. Defenestration 02:56
03. Crawling Ghouls 01:45
04. MetalHeart 02:11
05. Set Fire to Their Lands 02:44
06. The Harvesters 01:56
07. Terminating Rain 01:52
08. The Seven Plagues Unleashed 03:32

"Cue"
REM GENRE "Thrash Metal"
REM DATE 2005
REM DISCID 64048808
REM COMMENT "ExactAudioCopy v0.99pb5"
PERFORMER "REDIMONI"
TITLE "The Onset Of Chaos"
FILE "REDIMONI - The Onset Of Chaos.flac" WAVE
TRACK 01 AUDIO
TITLE "Desperta Ferro"
PERFORMER "REDIMONI"
INDEX 01 00:00:00
TRACK 02 AUDIO
TITLE "Defenestration"
PERFORMER "REDIMONI"
INDEX 01 02:21:34
TRACK 03 AUDIO
TITLE "Crawling Ghouls"
PERFORMER "REDIMONI"
INDEX 01 05:17:57
TRACK 04 AUDIO
TITLE "Metalheart"
PERFORMER "REDIMONI"
INDEX 01 07:03:29
TRACK 05 AUDIO
TITLE "Set Fire To Their Lands"
PERFORMER "REDIMONI"
INDEX 01 09:14:35
TRACK 06 AUDIO
TITLE "The Harvesters"
PERFORMER "REDIMONI"
INDEX 01 11:59:14
TRACK 07 AUDIO
TITLE "Terminating Rain"
PERFORMER "REDIMONI"
INDEX 01 13:55:20
TRACK 08 AUDIO
TITLE "The Seven Plagues Unleashed"
PERFORMER "REDIMONI"
INDEX 01 15:47:73

"Log"
Exact Audio Copy V0.99 prebeta 5 from 4. May 2009

Отчёт EAC об извлечении, выполненном 24. июня 2013, 13:08

REDIMONI / The Onset Of Chaos

Дисковод: MATSHITADVD-RAM UJ8A0AS Adapter: 0 ID: 1

Режим чтения : Достоверность
Использование точного потока : Да
Отключение кэша аудио : Да
Использование указателей C2 : Нет

Коррекция смещения при чтении : 102
Способность читать области Lead-in и Lead-out : Нет
Заполнение пропущенных сэмплов тишиной : Да
Удаление блоков с тишиной в начале и конце : Нет
При вычислениях CRC использовались нулевые сэмплы : Да
Интерфейс : Встроенный Win32-интерфейс для Win NT/2000

Выходной формат : Пользовательский кодировщик
Выбранный битрейт : 1024 kBit/s
Качество : Высокий
Добавление ID3-тэга : Нет
Утилита сжатия : C:\Program Files\Exact Audio Copy\FLAC\FLAC.EXE
Дополнительные параметры : -6 -V -T "ARTIST=%a" -T "TITLE=%t" -T "ALBUM=%g" -T "DATE=%y" -T "TRACKNUMBER=%n" -T "GENRE=%m" -T "COMMENT=%e" %s -o %d


TOC извлечённого CD

Трек | Старт | Длительность | Начальный сектор | Конечный сектор
---------------------------------------------------------------------
1 | 0:00.00 | 2:21.34 | 0 | 10608
2 | 2:21.34 | 2:56.23 | 10609 | 23831
3 | 5:17.57 | 1:45.47 | 23832 | 31753
4 | 7:03.29 | 2:11.06 | 31754 | 41584
5 | 9:14.35 | 2:44.54 | 41585 | 53938
6 | 11:59.14 | 1:56.06 | 53939 | 62644
7 | 13:55.20 | 1:52.53 | 62645 | 71097
8 | 15:47.73 | 3:33.01 | 71098 | 87073


Характеристики диапазона извлечения и сообщения об ошибках

Выбранный диапазон

Имя файла C:\Users\эксперт\Music\REDIMONI - The Onset Of Chaos.wav

Пиковый уровень 100.0 %
Качество диапазона 100.0 %
CRC копии 9796F9B4
Копирование... OK

Ошибок не произошло


AccurateRip: сводка

Трек 1 точное извлечение (доверие 1) [16F7B478]
Трек 2 точное извлечение (доверие 1) [E3EB476F]
Трек 3 точное извлечение (доверие 1) [C6FB80FF]
Трек 4 точное извлечение (доверие 1) [2B71C770]
Трек 5 точное извлечение (доверие 1) [1A8814B9]
Трек 6 точное извлечение (доверие 1) [55E662FE]
Трек 7 точное извлечение (доверие 1) [AFFDFA49]
Трек 8 точное извлечение (доверие 1) [A45467E2]

Все треки извлечены точно

Конец отчёта


The Onset Of Chaos

Image

Year:2008
Style:Thrash Metal
Country:Spain
Archive:Flac+Cue+Log+Scans
Size:315Mb
Source:my CD
Label:Witches Brew
Catalog ID:BREW018

Tracklist:
01. Infernal 03:02
02. Straight To Hell 02:34
03. Shah Mat 02:31
04. Sovereign Of The Great Beyond 03:19
05. Chaos Panzerblast 02:38
06. Wrath Wars 02:51
07. Nail Maniac 03:25
08. Castles of Damnation 02:11
09. Hell’s Ascension 02:57
10. Lords Of Pestilence 03:07
11. To The Death 01:33
12. Irongoat 04:25
13. Riding To Battle 04:25

"Cue"
REM GENRE "Thrash Metal"
REM DATE 2008
REM DISCID A5092A0D
REM COMMENT "ExactAudioCopy v0.99pb5"
PERFORMER "Redimoni"
TITLE "Into The Coiling Arms Of Mayhem"
FILE "Redimoni - Into The Coiling Arms Of Mayhem.flac" WAVE
TRACK 01 AUDIO
TITLE "Infernal"
PERFORMER "Redimoni"
FLAGS DCP
INDEX 01 00:00:00
TRACK 02 AUDIO
TITLE "Straight To Hell"
PERFORMER "Redimoni"
FLAGS DCP
INDEX 01 03:02:40
TRACK 03 AUDIO
TITLE "Shah Mat"
PERFORMER "Redimoni"
FLAGS DCP
INDEX 01 05:37:32
TRACK 04 AUDIO
TITLE "Sovereign Of The Great Beyond"
PERFORMER "Redimoni"
FLAGS DCP
INDEX 01 08:09:15
TRACK 05 AUDIO
TITLE "Chaos Panzerblast"
PERFORMER "Redimoni"
FLAGS DCP
INDEX 01 11:28:64
TRACK 06 AUDIO
TITLE "Wrath Wars"
PERFORMER "Redimoni"
FLAGS DCP
INDEX 01 14:07:43
TRACK 07 AUDIO
TITLE "Nail Maniac"
PERFORMER "Redimoni"
FLAGS DCP
INDEX 01 16:59:29
TRACK 08 AUDIO
TITLE "Castles Of Damnation"
PERFORMER "Redimoni"
FLAGS DCP
INDEX 01 20:24:48
TRACK 09 AUDIO
TITLE "Hell’s Ascension"
PERFORMER "Redimoni"
FLAGS DCP
INDEX 01 22:35:56
TRACK 10 AUDIO
TITLE "Lords Of Pestilence"
PERFORMER "Redimoni"
FLAGS DCP
INDEX 01 25:33:42
TRACK 11 AUDIO
TITLE "To The Death"
PERFORMER "Redimoni"
FLAGS DCP
INDEX 01 28:40:60
TRACK 12 AUDIO
TITLE "Irongoat"
PERFORMER "Redimoni"
FLAGS DCP
INDEX 01 30:14:28
TRACK 13 AUDIO
TITLE "Riding To Battle"
PERFORMER "Redimoni"
FLAGS DCP
INDEX 01 34:40:27

"Log"
Exact Audio Copy V0.99 prebeta 5 from 4. May 2009

Отчёт EAC об извлечении, выполненном 24. июня 2013, 12:44

Redimoni / Into The Coiling Arms Of Mayhem

Дисковод: MATSHITADVD-RAM UJ8A0AS Adapter: 0 ID: 1

Режим чтения : Достоверность
Использование точного потока : Да
Отключение кэша аудио : Да
Использование указателей C2 : Нет

Коррекция смещения при чтении : 102
Способность читать области Lead-in и Lead-out : Нет
Заполнение пропущенных сэмплов тишиной : Да
Удаление блоков с тишиной в начале и конце : Нет
При вычислениях CRC использовались нулевые сэмплы : Да
Интерфейс : Встроенный Win32-интерфейс для Win NT/2000

Выходной формат : Пользовательский кодировщик
Выбранный битрейт : 1024 kBit/s
Качество : Высокий
Добавление ID3-тэга : Нет
Утилита сжатия : C:\Program Files\Exact Audio Copy\FLAC\FLAC.EXE
Дополнительные параметры : -6 -V -T "ARTIST=%a" -T "TITLE=%t" -T "ALBUM=%g" -T "DATE=%y" -T "TRACKNUMBER=%n" -T "GENRE=%m" -T "COMMENT=%e" %s -o %d


TOC извлечённого CD

Трек | Старт | Длительность | Начальный сектор | Конечный сектор
---------------------------------------------------------------------
1 | 0:00.00 | 3:02.40 | 0 | 13689
2 | 3:02.40 | 2:34.67 | 13690 | 25306
3 | 5:37.32 | 2:31.58 | 25307 | 36689
4 | 8:09.15 | 3:19.49 | 36690 | 51663
5 | 11:28.64 | 2:38.54 | 51664 | 63567
6 | 14:07.43 | 2:51.61 | 63568 | 76453
7 | 16:59.29 | 3:25.19 | 76454 | 91847
8 | 20:24.48 | 2:11.08 | 91848 | 101680
9 | 22:35.56 | 2:57.61 | 101681 | 115016
10 | 25:33.42 | 3:07.18 | 115017 | 129059
11 | 28:40.60 | 1:33.43 | 129060 | 136077
12 | 30:14.28 | 4:25.74 | 136078 | 156026
13 | 34:40.27 | 4:25.62 | 156027 | 175963


Характеристики диапазона извлечения и сообщения об ошибках

Выбранный диапазон

Имя файла C:\Users\эксперт\Music\Redimoni - Into The Coiling Arms Of Mayhem.wav

Пиковый уровень 98.7 %
Качество диапазона 100.0 %
CRC копии ADDF36B7
Копирование... OK

Ошибок не произошло


AccurateRip: сводка

Трек 1 точное извлечение (доверие 1) [877FA5F5]
Трек 2 точное извлечение (доверие 1) [A93245D8]
Трек 3 точное извлечение (доверие 1) [4F97E36E]
Трек 4 точное извлечение (доверие 1) [B93FC843]
Трек 5 точное извлечение (доверие 1) [5F1675B6]
Трек 6 точное извлечение (доверие 1) [D5B1315D]
Трек 7 точное извлечение (доверие 1) [F241870C]
Трек 8 точное извлечение (доверие 1) [EC50FC80]
Трек 9 точное извлечение (доверие 1) [F6ED5A7B]
Трек 10 точное извлечение (доверие 1) [98E3859C]
Трек 11 точное извлечение (доверие 1) [77B7C9ED]
Трек 12 точное извлечение (доверие 1) [86BC082F]
Трек 13 точное извлечение (доверие 1) [0607D546]

Все треки извлечены точно


Into The Coiling Arms Of Mayhem

Image

Year:2012
Style:Thrash Metal
Country:Spain
Archive:Flac+Cue+Log+Scans
Size:300Mb
Source:my CD
Label:Xtreem Music
Catalog ID:XM 115 CD

Tracklist:
01. The End Times 01:18
02. Cast Into The Valley Of Hinnom 02:52
03. Shrapnel Wounds 02:49
04. To The Gallows 02:52
05. Towards Destruction 02:51
06. Journey To The Netherworld 04:33
07. Drifting Into Oblivion 02:39
08. The Abyss 03:39
09. Pragmatic Sorcery 03:08
10. Dragged To The Bottom Of The Depths 03:40
11. Facing Pazuzu 02:51
12. The Ultimate Victory 03:33

"Cue"
REM GENRE "Thrash Metal"
REM DATE 2012
REM DISCID A708A20C
REM COMMENT "ExactAudioCopy v0.99pb5"
PERFORMER "Redimoni"
TITLE "Standing Before The End Of Time"
FILE "Redimoni - Standing Before The End Of Time.flac" WAVE
TRACK 01 AUDIO
TITLE "The End Times"
PERFORMER "Redimoni"
INDEX 01 00:00:00
TRACK 02 AUDIO
TITLE "Cast Into The Valley Of Hinnom"
PERFORMER "Redimoni"
INDEX 01 01:18:33
TRACK 03 AUDIO
TITLE "Shrapnel Wounds"
PERFORMER "Redimoni"
INDEX 01 04:11:24
TRACK 04 AUDIO
TITLE "To The Gallows"
PERFORMER "Redimoni"
INDEX 01 07:01:13
TRACK 05 AUDIO
TITLE "Towards Destruction"
PERFORMER "Redimoni"
INDEX 01 09:53:66
TRACK 06 AUDIO
TITLE "Journey To The Netherworld"
PERFORMER "Redimoni"
INDEX 01 12:45:24
TRACK 07 AUDIO
TITLE "Drifting Into Oblivion"
PERFORMER "Redimoni"
INDEX 01 17:18:28
TRACK 08 AUDIO
TITLE "The Abyss"
PERFORMER "Redimoni"
INDEX 01 19:57:43
TRACK 09 AUDIO
TITLE "Pragmatic Sorcery"
PERFORMER "Redimoni"
INDEX 01 23:36:68
TRACK 10 AUDIO
TITLE "Dragged To The Bottom Of The Depths"
PERFORMER "Redimoni"
INDEX 01 26:45:21
TRACK 11 AUDIO
TITLE "Facing Pazuzu"
PERFORMER "Redimoni"
INDEX 01 30:25:26
TRACK 12 AUDIO
TITLE "The Ultimate Victory"
PERFORMER "Redimoni"
INDEX 01 33:17:16

"Log"
Exact Audio Copy V0.99 prebeta 5 from 4. May 2009

Отчёт EAC об извлечении, выполненном 17. сентября 2015, 10:18

Redimoni / Standing Before The End Of Time

Дисковод: MATSHITADVD-RAM UJ8A0AS Adapter: 0 ID: 1

Режим чтения : Достоверность
Использование точного потока : Да
Отключение кэша аудио : Да
Использование указателей C2 : Нет

Коррекция смещения при чтении : 102
Способность читать области Lead-in и Lead-out : Нет
Заполнение пропущенных сэмплов тишиной : Да
Удаление блоков с тишиной в начале и конце : Нет
При вычислениях CRC использовались нулевые сэмплы : Да
Интерфейс : Встроенный Win32-интерфейс для Win NT/2000

Выходной формат : Пользовательский кодировщик
Выбранный битрейт : 1024 kBit/s
Качество : Высокий
Добавление ID3-тэга : Нет
Утилита сжатия : C:\Program Files\Exact Audio Copy\FLAC\FLAC.EXE
Дополнительные параметры : -6 -V -T "ARTIST=%a" -T "TITLE=%t" -T "ALBUM=%g" -T "DATE=%y" -T "TRACKNUMBER=%n" -T "GENRE=%m" -T "COMMENT=%e" %s -o %d


TOC извлечённого CD

Трек | Старт | Длительность | Начальный сектор | Конечный сектор
---------------------------------------------------------------------
1 | 0:00.00 | 1:18.33 | 0 | 5882
2 | 1:18.33 | 2:52.66 | 5883 | 18848
3 | 4:11.24 | 2:49.64 | 18849 | 31587
4 | 7:01.13 | 2:52.53 | 31588 | 44540
5 | 9:53.66 | 2:51.33 | 44541 | 57398
6 | 12:45.24 | 4:33.04 | 57399 | 77877
7 | 17:18.28 | 2:39.15 | 77878 | 89817
8 | 19:57.43 | 3:39.25 | 89818 | 106267
9 | 23:36.68 | 3:08.28 | 106268 | 120395
10 | 26:45.21 | 3:40.05 | 120396 | 136900
11 | 30:25.26 | 2:51.65 | 136901 | 149790
12 | 33:17.16 | 3:33.30 | 149791 | 165795


Характеристики диапазона извлечения и сообщения об ошибках

Выбранный диапазон

Имя файла C:\Users\эксперт\Music\Redimoni - Standing Before The End Of Time.wav

Пиковый уровень 100.0 %
Качество диапазона 100.0 %
CRC копии 3F8AF4CA
Копирование... OK

Ошибок не произошло


AccurateRip: сводка

Трек 1 нет в базе данных
Трек 2 нет в базе данных
Трек 3 нет в базе данных
Трек 4 нет в базе данных
Трек 5 нет в базе данных
Трек 6 нет в базе данных
Трек 7 нет в базе данных
Трек 8 нет в базе данных
Трек 9 нет в базе данных
Трек 10 нет в базе данных
Трек 11 нет в базе данных
Трек 12 нет в базе данных

Ни одного трека нет в базе AccurateRip

Конец отчёта


Standing Before The End Of Time


Top
 Profile  
 
 
PostPosted: 18 Sep 2015 
Прокъмитолист
User avatar
Joined: 12 Aug 2007
Posts: 6514
Lоcаtion: Санктъ-Петербуркъ
Age: 51
Name: Олекъ
не знаю, что думает админ, а я утащу. спасибо, Серёга! :thanx:

_________________
прокъметол - это музыко, от которово есть прок (ы)


Top
 Profile  
 
Display posts from previous:  Sort by  
Post new topic Reply to topic  [ 2 posts ] 

All times are UTC + 3 hours


Who is online

Users browsing this forum: No registered users and 2 guests


You cannot post new topics in this forum
You cannot reply to topics in this forum
You cannot edit your posts in this forum
You cannot delete your posts in this forum
You cannot post attachments in this forum

Search for:
Яндекс.Метрика
Powered by phpBB © 2000, 2002, 2005, 2007 phpBB Group