\m/ 80's metal \m/

Информационно-аналитический форум "80 см пыли" (In Search We Trust) "У нас никто никуда не спешит"
Me For You - http://me-4u.com
It is currently 24 Sep 2018

All times are UTC + 3 hours

Spoiler
Chat - temporary registration for foreign users (please leave your application here)







Post new topic Reply to topic  [ 3 posts ] 
Author Message
 
PostPosted: 02 Aug 2015 
Генеральный thrasher
User avatar
Joined: 03 Oct 2008
Posts: 3450
Lоcаtion: Ханты-Мансийский АО
Age: 43
Name: Сергей
Image

Year:2014
Style:Thrash Metal / Crossover
Country:Brazil
Archive:Flac+Cue+Log+Scans
Size:283Mb
Source:my CD
Label:Voice Music

Tracklist:
01. Conflito Violento 03:20
02. Neocanibalismo 02:42
03. Grande Bosta 03:15
04. Sangue & Bunda 02:13
05. Século Sinistro 01:47
06. Jornada para o Inferno 03:20
07. Prenúncio de Treta 02:46
08. Stress Pós-traumático 03:01
09. Viciado Digital 02:15
10. Boiada Pra Bandido 03:24
11. Progreria Of Power 01:09
12. Puta,Viagra e Corrupção 02:20
13. Pra Fazer Pobre Chorar 02:26

"Cue"
REM GENRE "Thrash Metal/Crossover"
REM DATE 2014
REM DISCID A207FC0D
REM COMMENT "ExactAudioCopy v0.99pb5"
PERFORMER "Ratos De Porao"
TITLE "Seculo Sinistro"
FILE "Ratos De Porao - Seculo Sinistro.flac" WAVE
TRACK 01 AUDIO
TITLE "Conflito Violento"
PERFORMER "Ratos De Porao"
INDEX 01 00:00:00
TRACK 02 AUDIO
TITLE "Neocanibalismo"
PERFORMER "Ratos De Porao"
INDEX 01 03:20:67
TRACK 03 AUDIO
TITLE "Grande Bosta"
PERFORMER "Ratos De Porao"
INDEX 01 06:03:44
TRACK 04 AUDIO
TITLE "Sangue & Bunda"
PERFORMER "Ratos De Porao"
INDEX 01 09:18:62
TRACK 05 AUDIO
TITLE "Sйculo Sinistro"
PERFORMER "Ratos De Porao"
INDEX 01 11:32:48
TRACK 06 AUDIO
TITLE "Jornada para o Inferno"
PERFORMER "Ratos De Porao"
INDEX 01 13:20:04
TRACK 07 AUDIO
TITLE "Prenъncio de Treta"
PERFORMER "Ratos De Porao"
INDEX 01 16:40:62
TRACK 08 AUDIO
TITLE "Stress Pуs-Traumбtico"
PERFORMER "Ratos De Porao"
INDEX 01 19:26:69
TRACK 09 AUDIO
TITLE "Viciado Digital"
PERFORMER "Ratos De Porao"
INDEX 01 22:28:34
TRACK 10 AUDIO
TITLE "Boiada Pra Bandido"
PERFORMER "Ratos De Porao"
INDEX 01 24:43:64
TRACK 11 AUDIO
TITLE "Progreria Of Power"
PERFORMER "Ratos De Porao"
INDEX 01 28:07:67
TRACK 12 AUDIO
TITLE "Puta, Viagra e Corrupзгo"
PERFORMER "Ratos De Porao"
INDEX 01 29:17:63
TRACK 13 AUDIO
TITLE "Pra Fazer Pobre Chorar"
PERFORMER "Ratos De Porao"
INDEX 01 31:38:44

"Log"
Exact Audio Copy V0.99 prebeta 5 from 4. May 2009

Отчёт EAC об извлечении, выполненном 25. июня 2015, 5:47

Ratos De Porao / Seculo Sinistro

Дисковод: MATSHITADVD-RAM UJ8A0AS Adapter: 0 ID: 1

Режим чтения : Достоверность
Использование точного потока : Да
Отключение кэша аудио : Да
Использование указателей C2 : Нет

Коррекция смещения при чтении : 102
Способность читать области Lead-in и Lead-out : Нет
Заполнение пропущенных сэмплов тишиной : Да
Удаление блоков с тишиной в начале и конце : Нет
При вычислениях CRC использовались нулевые сэмплы : Да
Интерфейс : Встроенный Win32-интерфейс для Win NT/2000

Выходной формат : Пользовательский кодировщик
Выбранный битрейт : 1024 kBit/s
Качество : Высокий
Добавление ID3-тэга : Нет
Утилита сжатия : C:\Program Files\Exact Audio Copy\FLAC\FLAC.EXE
Дополнительные параметры : -6 -V -T "ARTIST=%a" -T "TITLE=%t" -T "ALBUM=%g" -T "DATE=%y" -T "TRACKNUMBER=%n" -T "GENRE=%m" -T "COMMENT=%e" %s -o %d


TOC извлечённого CD

Трек | Старт | Длительность | Начальный сектор | Конечный сектор
---------------------------------------------------------------------
1 | 0:00.00 | 3:20.67 | 0 | 15066
2 | 3:20.67 | 2:42.52 | 15067 | 27268
3 | 6:03.44 | 3:15.18 | 27269 | 41911
4 | 9:18.62 | 2:13.61 | 41912 | 51947
5 | 11:32.48 | 1:47.31 | 51948 | 60003
6 | 13:20.04 | 3:20.58 | 60004 | 75061
7 | 16:40.62 | 2:46.07 | 75062 | 87518
8 | 19:26.69 | 3:01.40 | 87519 | 101133
9 | 22:28.34 | 2:15.30 | 101134 | 111288
10 | 24:43.64 | 3:24.03 | 111289 | 126591
11 | 28:07.67 | 1:09.71 | 126592 | 131837
12 | 29:17.63 | 2:20.56 | 131838 | 142393
13 | 31:38.44 | 2:26.15 | 142394 | 153358


Характеристики диапазона извлечения и сообщения об ошибках

Выбранный диапазон

Имя файла C:\Users\эксперт\Music\Ratos De Porao - Seculo Sinistro.wav

Пиковый уровень 100.0 %
Качество диапазона 100.0 %
CRC копии BBD86F4E
Копирование... OK

Ошибок не произошло


AccurateRip: сводка

Трек 1 нет в базе данных
Трек 2 нет в базе данных
Трек 3 нет в базе данных
Трек 4 нет в базе данных
Трек 5 нет в базе данных
Трек 6 нет в базе данных
Трек 7 нет в базе данных
Трек 8 нет в базе данных
Трек 9 нет в базе данных
Трек 10 нет в базе данных
Трек 11 нет в базе данных
Трек 12 нет в базе данных
Трек 13 нет в базе данных

Ни одного трека нет в базе AccurateRip

Конец отчёта


Século Sinistro


Top
 Profile  
 
 
PostPosted: 02 Aug 2015 
ТрэшЭрос
User avatar
Joined: 18 Jul 2011
Posts: 2296
Lоcаtion: Гулькевичи
Age: 43
Name: Александр
:thanx: за всё, Серёга!
Кроссовер :true:

_________________
Thrash no trash!!!


Top
 Profile E-mail  
 
 
PostPosted: 05 Aug 2015 
Alive Again
User avatar
Joined: 17 Dec 2008
Posts: 4682
Lоcаtion: Курск Воронеж Оскол
Age: 44
Name: Дмитрий
Эти ребяты всегда интересны :thanx:


Top
 Profile E-mail  
 
Display posts from previous:  Sort by  
Post new topic Reply to topic  [ 3 posts ] 

All times are UTC + 3 hours


Who is online

Users browsing this forum: No registered users and 3 guests


You cannot post new topics in this forum
You cannot reply to topics in this forum
You cannot edit your posts in this forum
You cannot delete your posts in this forum
You cannot post attachments in this forum

Search for:
Яндекс.Метрика
Powered by phpBB © 2000, 2002, 2005, 2007 phpBB Group