\m/ 80's metal \m/

Информационно-аналитический форум "80 см пыли" (In Search We Trust) "У нас никто никуда не спешит"
Me For You - http://me-4u.com
It is currently 24 Aug 2019

All times are UTC + 3 hours

Spoiler
Chat - temporary registration for foreign users (please leave your application here)







Post new topic Reply to topic  [ 10 posts ] 
Author Message
 
PostPosted: 17 Jun 2015 
Генеральный thrasher
User avatar
Joined: 03 Oct 2008
Posts: 3717
Lоcаtion: Ханты-Мансийский АО
Age: 44
Name: Сергей
Всеобьемлющая компиляция творчества группы.Может кому и сгодится...

Image

Year:2013
Style:Thrash Metal
Country:U.S.A.
Archive:Flac+Cue+Log+Scans+Video
Size:650Mb+603Mb
Source:my CD
Label:Divebomb Records
Catalog ID:DIVE038

CD 1:
Terminal Reality - EP (1993)
01. Land Of Broken Promises 04:16
02. Victim Of The Game 04:21
03. Voice Of Reason 05:14
04. Remembrance 03:35
05. Who's In Control 04:18
06. Return To Nothing 03:34
Perpetual Aggravation - Demo (1990)
07. The Krusher 04:12
08. Shrouded In Darkness 05:17
09. Kill Thy Neighbor 04:52
10. Circle Of Blood 05:32
11. S.T.D. (Socially Transmitted Death) 06:11
12. Pieces Of Aggravation 02:53
Lost In Mind - Demo (1991)
13. Hypothermia 04:17
14. Lost In Mind 05:01
15. Monkey See, Monkey Do 03:07
16. Feet First 05:13
17. Wastoid 01:49
Bonus Track
18. The Krusher (Live) 03:59

CD 2:
The Stuck Demo (1994)
01. Stuck 04:06
02. Future Tense 04:08
03. Drag 04:12
04. Mass Population 02:56
Paingod - Demo (1995)
05. Paingod/Sicklife 07:59
06. Not A Moment To Spare 03:05
07. Blind Vision 02:55
08. Easy Way Out 03:26
09. Self-Made Man 03:27
10. One And The Same 02:40

"Cue 1"
REM GENRE "Thrash Metal"
REM DATE 2013
REM DISCID FC126112
REM COMMENT "ExactAudioCopy v0.99pb5"
PERFORMER "Raped Ape"
TITLE "Land Of Broken Promises (CD 1)"
FILE "Raped Ape - Land Of Broken Promises (CD 1).flac" WAVE
TRACK 01 AUDIO
TITLE "Land Of Broken Promises"
PERFORMER "Raped Ape"
FLAGS DCP
INDEX 01 00:00:00
TRACK 02 AUDIO
TITLE "Victim Of The Game"
PERFORMER "Raped Ape"
FLAGS DCP
INDEX 00 04:16:15
INDEX 01 04:18:15
TRACK 03 AUDIO
TITLE "Voice Of Reason "
PERFORMER "Raped Ape"
FLAGS DCP
INDEX 00 08:40:04
INDEX 01 08:42:04
TRACK 04 AUDIO
TITLE "Remembrance"
PERFORMER "Raped Ape"
FLAGS DCP
INDEX 00 13:56:54
INDEX 01 13:58:54
TRACK 05 AUDIO
TITLE "Who's In Control"
PERFORMER "Raped Ape"
FLAGS DCP
INDEX 00 17:34:12
INDEX 01 17:36:11
TRACK 06 AUDIO
TITLE "Return To Nothing"
PERFORMER "Raped Ape"
FLAGS DCP
INDEX 00 21:54:36
INDEX 01 21:56:36
TRACK 07 AUDIO
TITLE "The Krusher"
PERFORMER "Raped Ape"
FLAGS DCP
INDEX 00 25:30:57
INDEX 01 25:32:57
TRACK 08 AUDIO
TITLE "Shrouded In Darkness"
PERFORMER "Raped Ape"
FLAGS DCP
INDEX 00 29:45:54
INDEX 01 29:47:54
TRACK 09 AUDIO
TITLE "Kill Thy Neighbor"
PERFORMER "Raped Ape"
FLAGS DCP
INDEX 00 35:05:30
INDEX 01 35:07:30
TRACK 10 AUDIO
TITLE "Circle Of Blood"
PERFORMER "Raped Ape"
FLAGS DCP
INDEX 00 40:00:21
INDEX 01 40:02:21
TRACK 11 AUDIO
TITLE "S.T.D. (Socially Transmitted Death)"
PERFORMER "Raped Ape"
FLAGS DCP
INDEX 00 45:34:57
INDEX 01 45:36:57
TRACK 12 AUDIO
TITLE "Pieces Of Aggravation"
PERFORMER "Raped Ape"
FLAGS DCP
INDEX 00 51:48:50
INDEX 01 51:50:50
TRACK 13 AUDIO
TITLE "Hypothermia"
PERFORMER "Raped Ape"
FLAGS DCP
INDEX 00 54:43:65
INDEX 01 54:45:65
TRACK 14 AUDIO
TITLE "Lost In Mind"
PERFORMER "Raped Ape"
FLAGS DCP
INDEX 00 59:03:59
INDEX 01 59:05:59
TRACK 15 AUDIO
TITLE "Monkey See, Monkey Do"
PERFORMER "Raped Ape"
FLAGS DCP
INDEX 00 64:07:34
INDEX 01 64:09:34
TRACK 16 AUDIO
TITLE "Feet First"
PERFORMER "Raped Ape"
FLAGS DCP
INDEX 00 67:17:01
INDEX 01 67:19:01
TRACK 17 AUDIO
TITLE "Wastoid"
PERFORMER "Raped Ape"
FLAGS DCP
INDEX 00 72:32:60
INDEX 01 72:34:60
TRACK 18 AUDIO
TITLE "The Krusher (Live)"
PERFORMER "Raped Ape"
FLAGS DCP
INDEX 00 74:24:49
INDEX 01 74:26:49

"Cue 2"
REM GENRE "Thrash Metal"
REM DATE 2013
REM DISCID AC11B20B
REM COMMENT "ExactAudioCopy v0.99pb5"
PERFORMER "Raped Ape"
TITLE "Land Of Broken Promises (CD 2)"
FILE "Raped Ape - Land Of Broken Promises (CD 2).flac" WAVE
TRACK 01 AUDIO
TITLE "Stuck"
PERFORMER "Raped Ape"
FLAGS DCP
INDEX 01 00:00:00
TRACK 02 AUDIO
TITLE "Future Tense"
PERFORMER "Raped Ape"
FLAGS DCP
INDEX 01 04:05:64
TRACK 03 AUDIO
TITLE "Drag"
PERFORMER "Raped Ape"
FLAGS DCP
INDEX 01 08:14:48
TRACK 04 AUDIO
TITLE "Mass Population"
PERFORMER "Raped Ape"
FLAGS DCP
INDEX 01 12:26:48
TRACK 05 AUDIO
TITLE "Paingod/Sicklife"
PERFORMER "Raped Ape"
FLAGS DCP
INDEX 00 15:22:71
INDEX 01 15:24:71
TRACK 06 AUDIO
TITLE "Not A Moment To Spare"
PERFORMER "Raped Ape"
FLAGS DCP
INDEX 01 23:24:23
TRACK 07 AUDIO
TITLE "Blind Vision"
PERFORMER "Raped Ape"
FLAGS DCP
INDEX 01 26:30:01
TRACK 08 AUDIO
TITLE "Easy Way Out"
PERFORMER "Raped Ape"
FLAGS DCP
INDEX 01 29:25:66
TRACK 09 AUDIO
TITLE "Self-Made Man"
PERFORMER "Raped Ape"
FLAGS DCP
INDEX 01 32:52:63
TRACK 10 AUDIO
TITLE "One And The Same"
PERFORMER "Raped Ape"
FLAGS DCP
INDEX 01 36:20:09

"Log 1"
Exact Audio Copy V0.99 prebeta 5 from 4. May 2009

Отчёт EAC об извлечении, выполненном 5. июня 2014, 12:47

Raped Ape / Land Of Broken Promises (CD 1)

Дисковод: MATSHITADVD-RAM UJ8A0AS Adapter: 0 ID: 1

Режим чтения : Достоверность
Использование точного потока : Да
Отключение кэша аудио : Да
Использование указателей C2 : Нет

Коррекция смещения при чтении : 102
Способность читать области Lead-in и Lead-out : Нет
Заполнение пропущенных сэмплов тишиной : Да
Удаление блоков с тишиной в начале и конце : Нет
При вычислениях CRC использовались нулевые сэмплы : Да
Интерфейс : Встроенный Win32-интерфейс для Win NT/2000

Выходной формат : Пользовательский кодировщик
Выбранный битрейт : 1024 kBit/s
Качество : Высокий
Добавление ID3-тэга : Нет
Утилита сжатия : C:\Program Files\Exact Audio Copy\FLAC\FLAC.EXE
Дополнительные параметры : -6 -V -T "ARTIST=%a" -T "TITLE=%t" -T "ALBUM=%g" -T "DATE=%y" -T "TRACKNUMBER=%n" -T "GENRE=%m" -T "COMMENT=%e" %s -o %d


TOC извлечённого CD

Трек | Старт | Длительность | Начальный сектор | Конечный сектор
---------------------------------------------------------------------
1 | 0:00.00 | 4:18.15 | 0 | 19364
2 | 4:18.15 | 4:23.64 | 19365 | 39153
3 | 8:42.04 | 5:16.50 | 39154 | 62903
4 | 13:58.54 | 3:37.32 | 62904 | 79210
5 | 17:36.11 | 4:20.25 | 79211 | 98735
6 | 21:56.36 | 3:36.21 | 98736 | 114956
7 | 25:32.57 | 4:14.72 | 114957 | 134078
8 | 29:47.54 | 5:19.51 | 134079 | 158054
9 | 35:07.30 | 4:54.66 | 158055 | 180170
10 | 40:02.21 | 5:34.36 | 180171 | 205256
11 | 45:36.57 | 6:13.68 | 205257 | 233299
12 | 51:50.50 | 2:55.15 | 233300 | 246439
13 | 54:45.65 | 4:19.69 | 246440 | 265933
14 | 59:05.59 | 5:03.50 | 265934 | 288708
15 | 64:09.34 | 3:09.42 | 288709 | 302925
16 | 67:19.01 | 5:15.59 | 302926 | 326609
17 | 72:34.60 | 1:51.64 | 326610 | 334998
18 | 74:26.49 | 3:59.20 | 334999 | 352943


Характеристики диапазона извлечения и сообщения об ошибках

Выбранный диапазон

Имя файла C:\Users\эксперт\Music\Raped Ape - Land Of Broken Promises (CD 1).wav

Пиковый уровень 100.0 %
Качество диапазона 100.0 %
CRC копии 8F04A251
Копирование... OK

Ошибок не произошло


AccurateRip: сводка

Трек 1 точность не определена (достоверность 1) [04C8467B], AccurateRip вернул [C359738B]
Трек 2 точность не определена (достоверность 1) [29134291], AccurateRip вернул [CF02AB06]
Трек 3 точность не определена (достоверность 1) [1A4EECE1], AccurateRip вернул [4C55731F]
Трек 4 точность не определена (достоверность 1) [747E3B7D], AccurateRip вернул [4A15A493]
Трек 5 точность не определена (достоверность 1) [E0F208E3], AccurateRip вернул [3F009966]
Трек 6 точность не определена (достоверность 1) [90D87F24], AccurateRip вернул [60AE43FD]
Трек 7 точность не определена (достоверность 1) [B9EE0FE6], AccurateRip вернул [04FA11E4]
Трек 8 точность не определена (достоверность 1) [B31F2333], AccurateRip вернул [7D82C472]
Трек 9 точность не определена (достоверность 1) [3BC47428], AccurateRip вернул [DCBECDA2]
Трек 10 точность не определена (достоверность 1) [06CF441A], AccurateRip вернул [111128F9]
Трек 11 точность не определена (достоверность 1) [CA1CF661], AccurateRip вернул [6ADAC72B]
Трек 12 точность не определена (достоверность 1) [68595F55], AccurateRip вернул [54BC4513]
Трек 13 точность не определена (достоверность 1) [95A49888], AccurateRip вернул [D4530153]
Трек 14 точность не определена (достоверность 1) [40668193], AccurateRip вернул [B39B412E]
Трек 15 точность не определена (достоверность 1) [DC043068], AccurateRip вернул [F4E5CB01]
Трек 16 точность не определена (достоверность 1) [CA2DC44A], AccurateRip вернул [C9013713]
Трек 17 точность не определена (достоверность 1) [8A6231CA], AccurateRip вернул [2894A929]
Трек 18 точность не определена (достоверность 1) [2AB8B73A], AccurateRip вернул [FA60D77F]

Ни один трек не прошёл проверки на точность
В вашей базе может быть иной вариант штамповки диска

Конец отчёта

"Log 2"
Exact Audio Copy V0.99 prebeta 5 from 4. May 2009

Отчёт EAC об извлечении, выполненном 5. июня 2014, 13:45

Raped Ape / Land Of Broken Promises (CD 2)

Дисковод: MATSHITADVD-RAM UJ8A0AS Adapter: 0 ID: 1

Режим чтения : Достоверность
Использование точного потока : Да
Отключение кэша аудио : Да
Использование указателей C2 : Нет

Коррекция смещения при чтении : 102
Способность читать области Lead-in и Lead-out : Нет
Заполнение пропущенных сэмплов тишиной : Да
Удаление блоков с тишиной в начале и конце : Нет
При вычислениях CRC использовались нулевые сэмплы : Да
Интерфейс : Встроенный Win32-интерфейс для Win NT/2000

Выходной формат : Пользовательский кодировщик
Выбранный битрейт : 1024 kBit/s
Качество : Высокий
Добавление ID3-тэга : Нет
Утилита сжатия : C:\Program Files\Exact Audio Copy\FLAC\FLAC.EXE
Дополнительные параметры : -6 -V -T "ARTIST=%a" -T "TITLE=%t" -T "ALBUM=%g" -T "DATE=%y" -T "TRACKNUMBER=%n" -T "GENRE=%m" -T "COMMENT=%e" %s -o %d


TOC извлечённого CD

Трек | Старт | Длительность | Начальный сектор | Конечный сектор
---------------------------------------------------------------------
1 | 0:00.00 | 4:05.64 | 0 | 18438
2 | 4:05.64 | 4:08.59 | 18439 | 37097
3 | 8:14.48 | 4:12.00 | 37098 | 55997
4 | 12:26.48 | 2:58.23 | 55998 | 69370
5 | 15:24.71 | 7:59.27 | 69371 | 105322
6 | 23:24.23 | 3:05.53 | 105323 | 119250
7 | 26:30.01 | 2:55.65 | 119251 | 132440
8 | 29:25.66 | 3:26.72 | 132441 | 147962
9 | 32:52.63 | 3:27.21 | 147963 | 163508
10 | 36:20.09 | 2:40.48 | 163509 | 175556
11 | 41:32.57 | 33:57.25 | 186957 | 339756


Характеристики диапазона извлечения и сообщения об ошибках

Выбранный диапазон

Имя файла C:\Users\эксперт\Music\Raped Ape - Land Of Broken Promises CD II.wav

Пиковый уровень 98.8 %
Качество диапазона 100.0 %
CRC копии 198CDC05
Копирование... OK

Ошибок не произошло


AccurateRip: сводка

Трек 1 точность не определена (достоверность 1) [D28F37FF], AccurateRip вернул [4864C9A7]
Трек 2 точность не определена (достоверность 1) [C9292C3C], AccurateRip вернул [E88DBDD6]
Трек 3 точность не определена (достоверность 1) [37569213], AccurateRip вернул [7324D9A9]
Трек 4 точность не определена (достоверность 1) [48C19766], AccurateRip вернул [9845110F]
Трек 5 точность не определена (достоверность 1) [1ED2141B], AccurateRip вернул [4466DB35]
Трек 6 точность не определена (достоверность 1) [0E6AE075], AccurateRip вернул [C4BF8808]
Трек 7 точность не определена (достоверность 1) [23BD4EF9], AccurateRip вернул [433B51A7]
Трек 8 точность не определена (достоверность 1) [99545B96], AccurateRip вернул [03EF012D]
Трек 9 точность не определена (достоверность 1) [3CEBF3AC], AccurateRip вернул [58B3970B]
Трек 10 точность не определена (достоверность 1) [DA265290], AccurateRip вернул [5E6B5DC6]

Ни один трек не прошёл проверки на точность
В вашей базе может быть иной вариант штамповки диска

Конец отчёта


Land Of Broken Promises CD 1
Land Of Broken Promises CD 2


Top
 Profile  
 
 
PostPosted: 17 Jun 2015 
Прокъмитолист
User avatar
Joined: 12 Aug 2007
Posts: 6593
Lоcаtion: Санктъ-Петербуркъ
Age: 51
Name: Олекъ
:thanx:

_________________
прокъметол - это музыко, от которово есть прок (ы)


Top
 Profile  
 
 
PostPosted: 17 Jun 2015 
А может смените мне статус?..
User avatar
Joined: 02 Feb 2009
Posts: 999
Lоcаtion: из Тулы
Age: 45
Name: Максим
группа офигенная
я бы даже раскошелился на виниловые переиздания их работ, но увы...таковых не имеется
спасибо Серега

_________________
КМА


Top
 Profile  
 
 
PostPosted: 17 Jun 2015 
консэрваторъ
User avatar
Joined: 11 Aug 2007
Posts: 17167
Lоcаtion: Псков
Age: 45
Name: Сергей
Death напомнило...

RAPED APE - Land Of Broken Promises | +

_________________
THRASH 'EM ALL


Top
 Profile E-mail  
 
 
PostPosted: 21 Jun 2015 
ТрэшЭрос
User avatar
Joined: 18 Jul 2011
Posts: 2304
Lоcаtion: Гулькевичи
Age: 44
Name: Александр
thorbeorn, :thanx: :true:

_________________
Thrash no trash!!!


Top
 Profile E-mail  
 
 
PostPosted: 26 Jun 2015 
Alive Again
User avatar
Joined: 17 Dec 2008
Posts: 4747
Lоcаtion: Курск Воронеж Оскол
Age: 45
Name: Дмитрий
:thanx:


Top
 Profile E-mail  
 
 
PostPosted: 28 May 2018 
Работнечег
User avatar
Joined: 28 Aug 2007
Posts: 5954
Lоcаtion: г. Москва
Age: 30
Name: Дима
:thanx:


Top
 Profile E-mail  
 
 
PostPosted: 28 May 2018 
Хиппей (support team)
User avatar
Joined: 30 Jul 2007
Posts: 114073
Lоcаtion: Киев (Kyiv, UA)
Age: 46
Name: Andrey
thorbeorn wrote:
Land Of Broken Promises CD 1
Land Of Broken Promises CD 2

:thanx:

_________________


Top
 Profile E-mail  
 
 
PostPosted: 28 May 2018 
Хиппей (support team)
User avatar
Joined: 30 Jul 2007
Posts: 114073
Lоcаtion: Киев (Kyiv, UA)
Age: 46
Name: Andrey
Image

У всех около часу назад Яди начал вот так шалить :lloo:

_________________


Top
 Profile E-mail  
 
 
PostPosted: 30 May 2018 
Хиппей (support team)
User avatar
Joined: 30 Jul 2007
Posts: 114073
Lоcаtion: Киев (Kyiv, UA)
Age: 46
Name: Andrey
Попу стило :kro: http://prntscr.com/jobqb3

_________________


Top
 Profile E-mail  
 
Display posts from previous:  Sort by  
Post new topic Reply to topic  [ 10 posts ] 

All times are UTC + 3 hours


Who is online

Users browsing this forum: No registered users and 2 guests


You cannot post new topics in this forum
You cannot reply to topics in this forum
You cannot edit your posts in this forum
You cannot delete your posts in this forum
You cannot post attachments in this forum

Search for:
Яндекс.Метрика
cron
Powered by phpBB © 2000, 2002, 2005, 2007 phpBB Group