\m/ 80's metal \m/

Информационно-аналитический форум "80 см пыли" (In Search We Trust) "У нас никто никуда не спешит"
Me For You - http://me-4u.com
It is currently 18 Nov 2019

All times are UTC + 3 hours

Spoiler
Chat - temporary registration for foreign users (please leave your application here)







Post new topic Reply to topic  [ 5 posts ] 
Author Message
 
PostPosted: 01 Mar 2015 
Генеральный thrasher
User avatar
Joined: 03 Oct 2008
Posts: 3743
Lоcаtion: Ханты-Мансийский АО
Age: 44
Name: Сергей
Image

Year:1995
Style:Thrash Metal
Country:Canada
Audio:Flac+Cue+Log+Scans
Size:338Mb
Source:my CD
Label:Mascot Records

Line-Up:
John Prutton - bass
Ray Hartmann - drums
Dean Doucet - guitars,vocals (backing)
Jonas Falle - vocals,guitars

Tracklist:
01. War Machine 04:50
02. Shiver 04:36
03. Dreamstate 04:42
04. Left 4 Dead 04:00
05. Power Of One 04:50
06. Shut Your Mouth 04:10
07. Broken Mirror 04:53
08. Bones 04:35
09. Payback Time 04:33
10. Calm Before the Storm 04:52

"Cue"
REM GENRE "Thrash Metal"
REM DATE 1995
REM DISCID 840ACE0A
REM COMMENT "ExactAudioCopy v0.99pb5"
PERFORMER "Random Damage"
TITLE "Random Damage"
FILE "Random Damage - Random Damage.flac" WAVE
TRACK 01 AUDIO
TITLE "War Machine"
PERFORMER "Random Damage"
INDEX 00 00:00:00
INDEX 01 00:00:30
TRACK 02 AUDIO
TITLE "Shiver"
PERFORMER "Random Damage"
INDEX 01 04:51:24
TRACK 03 AUDIO
TITLE "Dreamstate"
PERFORMER "Random Damage"
INDEX 01 09:27:45
TRACK 04 AUDIO
TITLE "Left 4 Dead"
PERFORMER "Random Damage"
INDEX 01 14:10:41
TRACK 05 AUDIO
TITLE "Power Of One"
PERFORMER "Random Damage"
INDEX 01 18:10:52
TRACK 06 AUDIO
TITLE "Shut Your Mouth"
PERFORMER "Random Damage"
INDEX 01 23:00:52
TRACK 07 AUDIO
TITLE "Broken Mirror"
PERFORMER "Random Damage"
INDEX 01 27:10:55
TRACK 08 AUDIO
TITLE "Bones"
PERFORMER "Random Damage"
INDEX 01 32:04:43
TRACK 09 AUDIO
TITLE "Payback Time"
PERFORMER "Random Damage"
INDEX 01 36:40:20
TRACK 10 AUDIO
TITLE "Calm Before The Storm"
PERFORMER "Random Damage"
INDEX 01 41:14:07

"Log"
Exact Audio Copy V0.99 prebeta 5 from 4. May 2009

Отчёт EAC об извлечении, выполненном 28. февраля 2015, 20:02

Random Damage / Random Damage

Дисковод: MATSHITADVD-RAM UJ8A0AS Adapter: 0 ID: 1

Режим чтения : Достоверность
Использование точного потока : Да
Отключение кэша аудио : Да
Использование указателей C2 : Нет

Коррекция смещения при чтении : 102
Способность читать области Lead-in и Lead-out : Нет
Заполнение пропущенных сэмплов тишиной : Да
Удаление блоков с тишиной в начале и конце : Нет
При вычислениях CRC использовались нулевые сэмплы : Да
Интерфейс : Встроенный Win32-интерфейс для Win NT/2000

Выходной формат : Пользовательский кодировщик
Выбранный битрейт : 1024 kBit/s
Качество : Высокий
Добавление ID3-тэга : Нет
Утилита сжатия : C:\Program Files\Exact Audio Copy\FLAC\FLAC.EXE
Дополнительные параметры : -6 -V -T "ARTIST=%a" -T "TITLE=%t" -T "ALBUM=%g" -T "DATE=%y" -T "TRACKNUMBER=%n" -T "GENRE=%m" -T "COMMENT=%e" %s -o %d


TOC извлечённого CD

Трек | Старт | Длительность | Начальный сектор | Конечный сектор
---------------------------------------------------------------------
1 | 0:00.30 | 4:50.69 | 30 | 21848
2 | 4:51.24 | 4:36.21 | 21849 | 42569
3 | 9:27.45 | 4:42.71 | 42570 | 63790
4 | 14:10.41 | 4:00.11 | 63791 | 81801
5 | 18:10.52 | 4:50.00 | 81802 | 103551
6 | 23:00.52 | 4:10.03 | 103552 | 122304
7 | 27:10.55 | 4:53.63 | 122305 | 144342
8 | 32:04.43 | 4:35.52 | 144343 | 165019
9 | 36:40.20 | 4:33.62 | 165020 | 185556
10 | 41:14.07 | 4:52.52 | 185557 | 207508


Характеристики диапазона извлечения и сообщения об ошибках

Выбранный диапазон

Имя файла C:\Users\эксперт\Music\Random Damage - Random Damage.wav

Пиковый уровень 100.0 %
Качество диапазона 99.9 %
CRC копии 84823DC4
Копирование... OK

Ошибок не произошло


AccurateRip: сводка

Трек 1 точное извлечение (доверие 3) [6E9ABCF9]
Трек 2 точное извлечение (доверие 3) [E7805172]
Трек 3 точное извлечение (доверие 3) [FA5C9D38]
Трек 4 точное извлечение (доверие 3) [23C6C8D7]
Трек 5 точное извлечение (доверие 3) [54B1A970]
Трек 6 точное извлечение (доверие 3) [78038BD6]
Трек 7 точное извлечение (доверие 3) [FB485ED1]
Трек 8 точное извлечение (доверие 3) [6ECF08A1]
Трек 9 точное извлечение (доверие 3) [FC00FF0B]
Трек 10 точное извлечение (доверие 3) [C3F61F75]

Все треки извлечены точно

Конец отчёта


Random Damage


Top
 Profile  
 
 
PostPosted: 01 Mar 2015 
Персональный статус
Joined: 05 Feb 2011
Posts: 356
Lоcаtion: Russia, Novosibirsk
Age: 45
Name: Андрей
1998 тут: viewtopic.php?f=205&t=12673
Запрос так и не снят :oops:


Top
 Profile E-mail  
 
 
PostPosted: 01 Mar 2015 
Прокъмитолист
User avatar
Joined: 12 Aug 2007
Posts: 6637
Lоcаtion: Санктъ-Петербуркъ
Age: 52
Name: Олекъ
:thanx:

_________________
прокъметол - это музыко, от которово есть прок (ы)


Top
 Profile  
 
 
PostPosted: 02 Mar 2015 
ТрэшЭрос
User avatar
Joined: 18 Jul 2011
Posts: 2306
Lоcаtion: Гулькевичи
Age: 44
Name: Александр
thorbeorn :thanx: :true:

_________________
Thrash no trash!!!


Top
 Profile E-mail  
 
 
PostPosted: 26 Nov 2015 
Зарегился вот...
Joined: 09 Oct 2011
Posts: 2
Lоcаtion: italy
Name: Max
Yeah, good sloe thrash with some interesting songs like shover, shout your mouth. Listen to it.


Top
 Profile E-mail  
 
Display posts from previous:  Sort by  
Post new topic Reply to topic  [ 5 posts ] 

All times are UTC + 3 hours


Who is online

Users browsing this forum: No registered users and 1 guest


You cannot post new topics in this forum
You cannot reply to topics in this forum
You cannot edit your posts in this forum
You cannot delete your posts in this forum
You cannot post attachments in this forum

Search for:
Яндекс.Метрика
cron
Powered by phpBB © 2000, 2002, 2005, 2007 phpBB Group