\m/ 80's metal \m/

Информационно-аналитический форум "80 см пыли" (In Search We Trust) "У нас никто никуда не спешит"
Me For You - http://me-4u.com
It is currently 22 Aug 2019

All times are UTC + 3 hours

Spoiler
Chat - temporary registration for foreign users (please leave your application here)







Post new topic Reply to topic  [ 8 posts ] 
Author Message
 
PostPosted: 29 Nov 2014 
Генеральный thrasher
User avatar
Joined: 03 Oct 2008
Posts: 3717
Lоcаtion: Ханты-Мансийский АО
Age: 44
Name: Сергей
Image

Year:2009
Style:Heavy Metal
Country:U.S.A.
Audio:Flac+Cue+Log+Scans
Size:527Mb
Source:my CD
Label:StormSpell Records

Tracklist:
01. Scream (Your Lungs Out) 03:11
02. Dreamstate 04:44
03. Payback's Bitch 03:45
04. Too Far Gone 03:43
05. Nasty Lady 04:04
06. Counter Attack 03:25
07. Murder Breeds Murder 03:09
08. I'm Running 04:41
09. Grab a Hold and Pull 03:53
10. Night Porter 04:39
11. Master Of Discipline 04:10
12. Winds Of Change 03:06
13. You Don't Own Me 03:27
14. Tears In The Rain 05:12
15. Full Load 04:19
16. Burning Heaven 04:48
17. Time Will Tell 04:58

"Cue"
REM GENRE "Heavy Metal"
REM DATE 2009
REM DISCID 02104311
REM COMMENT "ExactAudioCopy v0.99pb5"
PERFORMER "Robyn Danger"
TITLE "Anthology"
FILE "Robyn Danger - Anthology.flac" WAVE
TRACK 01 AUDIO
TITLE "Scream (Your Lungs Out)"
PERFORMER "Robyn Danger"
FLAGS DCP
INDEX 01 00:00:00
TRACK 02 AUDIO
TITLE "Dreamstate"
PERFORMER "Robyn Danger"
FLAGS DCP
INDEX 01 03:11:56
TRACK 03 AUDIO
TITLE "Payback's Bitch"
PERFORMER "Robyn Danger"
FLAGS DCP
INDEX 01 07:55:61
TRACK 04 AUDIO
TITLE "Too Far Gone"
PERFORMER "Robyn Danger"
FLAGS DCP
INDEX 01 11:41:22
TRACK 05 AUDIO
TITLE "Nasty Lady"
PERFORMER "Robyn Danger"
FLAGS DCP
INDEX 01 15:24:65
TRACK 06 AUDIO
TITLE "Counter Attack"
PERFORMER "Robyn Danger"
FLAGS DCP
INDEX 01 19:29:58
TRACK 07 AUDIO
TITLE "Murder Breeds Murder"
PERFORMER "Robyn Danger"
FLAGS DCP
INDEX 01 22:55:32
TRACK 08 AUDIO
TITLE "I'm Running"
PERFORMER "Robyn Danger"
FLAGS DCP
INDEX 01 26:04:61
TRACK 09 AUDIO
TITLE "Grab A Hold And Pull"
PERFORMER "Robyn Danger"
FLAGS DCP
INDEX 01 30:46:11
TRACK 10 AUDIO
TITLE "Night Porter"
PERFORMER "Robyn Danger"
FLAGS DCP
INDEX 01 34:39:59
TRACK 11 AUDIO
TITLE "Master Of Discipline"
PERFORMER "Robyn Danger"
FLAGS DCP
INDEX 01 39:19:18
TRACK 12 AUDIO
TITLE "Winds Of Change"
PERFORMER "Robyn Danger"
FLAGS DCP
INDEX 01 43:30:12
TRACK 13 AUDIO
TITLE "You Don't Own Me"
PERFORMER "Robyn Danger"
FLAGS DCP
INDEX 01 46:36:40
TRACK 14 AUDIO
TITLE "Tears In The Rain"
PERFORMER "Robyn Danger"
FLAGS DCP
INDEX 01 50:04:15
TRACK 15 AUDIO
TITLE "Full Load"
PERFORMER "Robyn Danger"
FLAGS DCP
INDEX 01 55:16:62
TRACK 16 AUDIO
TITLE "Burning Heaven"
PERFORMER "Robyn Danger"
FLAGS DCP
INDEX 01 59:36:54
TRACK 17 AUDIO
TITLE "Time Will Tell"
PERFORMER "Robyn Danger"
FLAGS DCP
INDEX 01 64:24:57

"Log"
Exact Audio Copy V0.99 prebeta 5 from 4. May 2009

Отчёт EAC об извлечении, выполненном 28. ноября 2014, 17:56

Robyn Danger / Anthology

Дисковод: MATSHITADVD-RAM UJ8A0AS Adapter: 0 ID: 1

Режим чтения : Достоверность
Использование точного потока : Да
Отключение кэша аудио : Да
Использование указателей C2 : Нет

Коррекция смещения при чтении : 102
Способность читать области Lead-in и Lead-out : Нет
Заполнение пропущенных сэмплов тишиной : Да
Удаление блоков с тишиной в начале и конце : Нет
При вычислениях CRC использовались нулевые сэмплы : Да
Интерфейс : Встроенный Win32-интерфейс для Win NT/2000

Выходной формат : Пользовательский кодировщик
Выбранный битрейт : 1024 kBit/s
Качество : Высокий
Добавление ID3-тэга : Нет
Утилита сжатия : C:\Program Files\Exact Audio Copy\FLAC\FLAC.EXE
Дополнительные параметры : -6 -V -T "ARTIST=%a" -T "TITLE=%t" -T "ALBUM=%g" -T "DATE=%y" -T "TRACKNUMBER=%n" -T "GENRE=%m" -T "COMMENT=%e" %s -o %d


TOC извлечённого CD

Трек | Старт | Длительность | Начальный сектор | Конечный сектор
---------------------------------------------------------------------
1 | 0:00.00 | 3:11.56 | 0 | 14380
2 | 3:11.56 | 4:44.05 | 14381 | 35685
3 | 7:55.61 | 3:45.36 | 35686 | 52596
4 | 11:41.22 | 3:43.43 | 52597 | 69364
5 | 15:24.65 | 4:04.68 | 69365 | 87732
6 | 19:29.58 | 3:25.49 | 87733 | 103156
7 | 22:55.32 | 3:09.29 | 103157 | 117360
8 | 26:04.61 | 4:41.25 | 117361 | 138460
9 | 30:46.11 | 3:53.48 | 138461 | 155983
10 | 34:39.59 | 4:39.34 | 155984 | 176942
11 | 39:19.18 | 4:10.69 | 176943 | 195761
12 | 43:30.12 | 3:06.28 | 195762 | 209739
13 | 46:36.40 | 3:27.50 | 209740 | 225314
14 | 50:04.15 | 5:12.47 | 225315 | 248761
15 | 55:16.62 | 4:19.67 | 248762 | 268253
16 | 59:36.54 | 4:48.03 | 268254 | 289856
17 | 64:24.57 | 4:58.63 | 289857 | 312269


Характеристики диапазона извлечения и сообщения об ошибках

Выбранный диапазон

Имя файла C:\Users\эксперт\Music\Robyn Danger - Anthology.wav

Пиковый уровень 98.0 %
Качество диапазона 100.0 %
CRC копии 6E4648AA
Копирование... OK

Ошибок не произошло


AccurateRip: сводка

Трек 1 нет в базе данных
Трек 2 нет в базе данных
Трек 3 нет в базе данных
Трек 4 нет в базе данных
Трек 5 нет в базе данных
Трек 6 нет в базе данных
Трек 7 нет в базе данных
Трек 8 нет в базе данных
Трек 9 нет в базе данных
Трек 10 нет в базе данных
Трек 11 нет в базе данных
Трек 12 нет в базе данных
Трек 13 нет в базе данных
Трек 14 нет в базе данных
Трек 15 нет в базе данных
Трек 16 нет в базе данных
Трек 17 нет в базе данных

Ни одного трека нет в базе AccurateRip

Конец отчёта


Anthology


Top
 Profile  
 
 
PostPosted: 29 Nov 2014 
Partisanen - nicht kapitulieren!!
User avatar
Joined: 25 Dec 2011
Posts: 7086
Lоcаtion: партизанские леса
Age: 46
Name: Владимир
:thanx:

_________________
One more beer and Heavy Metal and I'm just fine!
старовер, куле... слово "блин" - до сих пор через Ъ говорю


Top
 Profile E-mail  
 
 
PostPosted: 29 Nov 2014 
Прокъмитолист
User avatar
Joined: 12 Aug 2007
Posts: 6590
Lоcаtion: Санктъ-Петербуркъ
Age: 51
Name: Олекъ
спасибо, Серёг! :thanx:

эх, что время творит... http://www.metal-archives.com/artists/R ... ger/302995 :fingal:

_________________
прокъметол - это музыко, от которово есть прок (ы)


Top
 Profile  
 
 
PostPosted: 29 Nov 2014 
Пионэръ
Joined: 25 Aug 2011
Posts: 48
Lоcаtion: Worl
Name: Zoltan Tivesko
thank you!!!
:thanx:


Top
 Profile E-mail  
 
 
PostPosted: 29 Nov 2014 
Генеральный thrasher
User avatar
Joined: 03 Oct 2008
Posts: 3717
Lоcаtion: Ханты-Мансийский АО
Age: 44
Name: Сергей
спасибо, Серёг! :thanx:

эх, что время творит... http://www.metal-archives.com/artists/R ... ger/302995 :fingal:


Фу,Олег!Зачем такую страшную тётку показал?!


Top
 Profile  
 
 
PostPosted: 29 Nov 2014 
Хиппей (support team)
User avatar
Joined: 30 Jul 2007
Posts: 114041
Lоcаtion: Киев (Kyiv, UA)
Age: 46
Name: Andrey
:thanx:

mirror: Narod l M-Cloud

thorbeorn wrote:
Зачем такую страшную тётку показал?!

:crazy:

_________________


Top
 Profile E-mail  
 
 
PostPosted: 29 Nov 2014 
Хиппей (support team)
User avatar
Joined: 30 Jul 2007
Posts: 114041
Lоcаtion: Киев (Kyiv, UA)
Age: 46
Name: Andrey
Мде... Она и раньше не красавица была :pardon:


_________________


Top
 Profile E-mail  
 
 
PostPosted: 01 Dec 2014 
ТрэшЭрос
User avatar
Joined: 18 Jul 2011
Posts: 2304
Lоcаtion: Гулькевичи
Age: 44
Name: Александр
thorbeorn :thanx:
Несмотря на страшную силу, думаю, лишать статUSA рок-богини тётушку Робин некорректно. Или корректНО? :umnik:

_________________
Thrash no trash!!!


Top
 Profile E-mail  
 
Display posts from previous:  Sort by  
Post new topic Reply to topic  [ 8 posts ] 

All times are UTC + 3 hours


Who is online

Users browsing this forum: No registered users and 1 guest


You cannot post new topics in this forum
You cannot reply to topics in this forum
You cannot edit your posts in this forum
You cannot delete your posts in this forum
You cannot post attachments in this forum

Search for:
Яндекс.Метрика
Powered by phpBB © 2000, 2002, 2005, 2007 phpBB Group