\m/ 80's metal \m/

Информационно-аналитический форум "80 см пыли" (In Search We Trust) "У нас никто никуда не спешит"
Железнодорожная биржа - RailAgent
It is currently 23 Jul 2018

All times are UTC + 3 hours

Spoiler
Chat - temporary registration for foreign users (please leave your application here)







Post new topic Reply to topic  [ 4 posts ] 
Author Message
 
PostPosted: 20 Feb 2014 
Генеральный thrasher
User avatar
Joined: 03 Oct 2008
Posts: 3408
Lоcаtion: Ханты-Мансийский АО
Age: 43
Name: Сергей
Image

Year:1986
Style:Thrash Metal/Crossover
Country:Brazil
Audio:Flac+Cue+Log+Scans
Size:222Mb
Source:my CD
Label:Baratos Afins

Tracklist:
01. Cérebros Atômicos
02. Morrer Mais Uma Vez
03. Velhus Decréptus
04. No Junk
05. Sofrimento Real
06. Juventude Perdida
07. Paranóia Nuclear
08. Descanse em Paz
09. Fora Eu
10. Aviso Final
11. Zona
Bonus Tracks:
12. Periferia (Live Bonus Track '83)
13. Agressão / Repressão (Live Bonus Track '83)
14. Pobreza (Live Bonus Track '83)
15. Caos (Live Bonus Track '83)
16. Não Me Importo (Live Bonus Track '83)
17. Que Vergonha (Live Bonus Track '83)

"Cue"
REM GENRE Hardcore
REM DATE 1986
REM DISCID E9083111
REM COMMENT "ExactAudioCopy v0.99pb4"
PERFORMER "Ratos de Porao"
TITLE "Descanse em Paz"
FILE "Ratos de Porao - Descanse em Paz.flac" WAVE
TRACK 01 AUDIO
TITLE "Cerebros Atomicos"
PERFORMER "Ratos de Porao"
INDEX 01 00:00:00
TRACK 02 AUDIO
TITLE "Morrer mais uma vez"
PERFORMER "Ratos de Porao"
INDEX 00 02:16:58
INDEX 01 02:18:60
TRACK 03 AUDIO
TITLE "Velhos Decreptus"
PERFORMER "Ratos de Porao"
INDEX 00 06:00:28
INDEX 01 06:02:30
TRACK 04 AUDIO
TITLE "No Junk"
PERFORMER "Ratos de Porao"
INDEX 00 07:46:20
INDEX 01 07:48:22
TRACK 05 AUDIO
TITLE "Sofrimento Real"
PERFORMER "Ratos de Porao"
INDEX 00 10:26:60
INDEX 01 10:28:62
TRACK 06 AUDIO
TITLE "Juventude Perdida"
PERFORMER "Ratos de Porao"
INDEX 00 13:45:60
INDEX 01 13:47:62
TRACK 07 AUDIO
TITLE "Paranoia Nuclear"
PERFORMER "Ratos de Porao"
INDEX 00 16:05:15
INDEX 01 16:07:17
TRACK 08 AUDIO
TITLE "Descanse em Paz"
PERFORMER "Ratos de Porao"
INDEX 00 17:04:00
INDEX 01 17:06:02
TRACK 09 AUDIO
TITLE "Fora eu"
PERFORMER "Ratos de Porao"
INDEX 00 19:48:45
INDEX 01 19:50:47
TRACK 10 AUDIO
TITLE "Aviso Final"
PERFORMER "Ratos de Porao"
INDEX 00 21:23:11
INDEX 01 21:25:10
TRACK 11 AUDIO
TITLE "Zonna"
PERFORMER "Ratos de Porao"
INDEX 00 24:23:10
INDEX 01 24:25:12
TRACK 12 AUDIO
TITLE "Periferia"
PERFORMER "Ratos de Porao"
INDEX 00 27:11:70
INDEX 01 27:13:72
TRACK 13 AUDIO
TITLE "Agressao-repressao"
PERFORMER "Ratos de Porao"
INDEX 00 28:57:09
INDEX 01 28:59:10
TRACK 14 AUDIO
TITLE "Pobreza"
PERFORMER "Ratos de Porao"
INDEX 00 30:21:43
INDEX 01 30:23:45
TRACK 15 AUDIO
TITLE "Caos"
PERFORMER "Ratos de Porao"
INDEX 00 31:39:03
INDEX 01 31:41:05
TRACK 16 AUDIO
TITLE "Nao me Importo"
PERFORMER "Ratos de Porao"
INDEX 00 32:02:40
INDEX 01 32:04:42
TRACK 17 AUDIO
TITLE "Que vergonha"
PERFORMER "Ratos de Porao"
INDEX 00 34:14:70
INDEX 01 34:16:72

"Log"
Exact Audio Copy V0.99 prebeta 4 from 23. January 2008

Отчёт EAC об извлечении, выполненном 2. ноября 2010, 9:09

Ratos de Porao / Descanse em Paz

Дисковод: TSSTcorpCDDVDW SH-S202N Adapter: 0 ID: 1

Режим чтения : Достоверность
Использование точного потока : Да
Отключение кэша аудио : Да
Использование указателей C2 : Нет

Коррекция смещения при чтении : 6
Способность читать области Lead-in и Lead-out : Нет
Заполнение пропущенных сэмплов тишиной : Да
Удаление блоков с тишиной в начале и конце : Нет
При вычислениях CRC использовались нулевые сэмплы : Да
Интерфейс : Установленный внешний ASPI-интерфейс

Выходной формат : Пользовательский кодировщик
Выбранный битрейт : 768 kBit/s
Качество : Высокий
Добавление ID3-тэга : Нет
Утилита сжатия : C:\Program Files\Exact Audio Copy\FLAC\FLAC.EXE
Дополнительные параметры : -6 -V -T "ARTIST=%a" -T "TITLE=%t" -T "ALBUM=%g" -T "DATE=%y" -T "TRACKNUMBER=%n" -T "GENRE=%m" -T "COMMENT=%e" %s -o %d


TOC извлечённого CD

Трек | Старт | Длительность | Начальный сектор | Конечный сектор
---------------------------------------------------------------------
1 | 0:00.00 | 2:18.60 | 0 | 10409
2 | 2:18.60 | 3:43.45 | 10410 | 27179
3 | 6:02.30 | 1:45.67 | 27180 | 35121
4 | 7:48.22 | 2:40.40 | 35122 | 47161
5 | 10:28.62 | 3:19.00 | 47162 | 62086
6 | 13:47.62 | 2:19.30 | 62087 | 72541
7 | 16:07.17 | 0:58.60 | 72542 | 76951
8 | 17:06.02 | 2:44.45 | 76952 | 89296
9 | 19:50.47 | 1:34.38 | 89297 | 96384
10 | 21:25.10 | 3:00.02 | 96385 | 109886
11 | 24:25.12 | 2:48.60 | 109887 | 122546
12 | 27:13.72 | 1:45.13 | 122547 | 130434
13 | 28:59.10 | 1:24.35 | 130435 | 136769
14 | 30:23.45 | 1:17.35 | 136770 | 142579
15 | 31:41.05 | 0:23.37 | 142580 | 144341
16 | 32:04.42 | 2:12.30 | 144342 | 154271
17 | 34:16.72 | 0:40.65 | 154272 | 157336


Характеристики диапазона извлечения и сообщения об ошибках

Выбранный диапазон

Имя файла F:\Лоси\Ratos De Porao\Ratos de Porao - Descanse em Paz.wav

Пиковый уровень 98.6 %
Качество диапазона 100.0 %
CRC копии E249DEB7
Копирование... OK

Ошибок не произошло


AccurateRip: сводка

Трек 1 точность не определена (достоверность 1) [1B9D8110], AccurateRip вернул [1E03ED60]
Трек 2 точность не определена (достоверность 1) [396080ED], AccurateRip вернул [BCB36B2D]
Трек 3 точность не определена (достоверность 1) [E5ECC7DE], AccurateRip вернул [A332080E]
Трек 4 точность не определена (достоверность 1) [1E09B211], AccurateRip вернул [D05062F1]
Трек 5 точность не определена (достоверность 1) [A7A7311D], AccurateRip вернул [B2743C2D]
Трек 6 точность не определена (достоверность 1) [CB58A509], AccurateRip вернул [DADDE2A9]
Трек 7 точность не определена (достоверность 1) [94122012], AccurateRip вернул [B5777602]
Трек 8 точность не определена (достоверность 1) [62B6D432], AccurateRip вернул [3F14F5D2]
Трек 9 точность не определена (достоверность 1) [CCF637D0], AccurateRip вернул [653C0BB0]
Трек 10 точность не определена (достоверность 1) [7D32688F], AccurateRip вернул [C7EF56DF]
Трек 11 точность не определена (достоверность 1) [BB34372D], AccurateRip вернул [93CA38CD]
Трек 12 точность не определена (достоверность 1) [C54F41DD], AccurateRip вернул [DC601B91]
Трек 13 точность не определена (достоверность 1) [8ED12A52], AccurateRip вернул [4CD4C0D3]
Трек 14 точность не определена (достоверность 1) [2D822203], AccurateRip вернул [92D2B7F9]
Трек 15 точность не определена (достоверность 1) [A8EC6745], AccurateRip вернул [5AEFA0D8]
Трек 16 точность не определена (достоверность 1) [ECEC1081], AccurateRip вернул [0E9FB372]
Трек 17 точность не определена (достоверность 1) [B408059E], AccurateRip вернул [1368E8E3]

Ни один трек не прошёл проверки на точность
В вашей базе может быть иной вариант штамповки диска

Конец отчёта


Descanse Em Paz

Думал что выкладывал...Оказывается нет...


Top
 Profile  
 
 
PostPosted: 20 Feb 2014 
Alive Again
User avatar
Joined: 17 Dec 2008
Posts: 4580
Lоcаtion: Курск Воронеж Оскол
Age: 43
Name: Дмитрий
:thanx:


Top
 Profile E-mail  
 
 
PostPosted: 20 Feb 2014 
Дежурный по КУПу
User avatar
Joined: 17 Aug 2007
Posts: 5869
Age: 50
Name: Ге
:thanx:

_________________
http://jp-mania.ru/
http://jp-tourdates.ucoz.ru/


Top
 Profile  
 
 
PostPosted: 21 Feb 2014 
Хиппей (support team)
User avatar
Joined: 30 Jul 2007
Posts: 105221
Lоcаtion: Киев (Kyiv, UA)
Age: 45
Name: Andrey
:thanx:

mirror: Narod l M-Cloud

_________________


Top
 Profile E-mail  
 
Display posts from previous:  Sort by  
Post new topic Reply to topic  [ 4 posts ] 

All times are UTC + 3 hours


Who is online

Users browsing this forum: No registered users and 1 guest


You cannot post new topics in this forum
You cannot reply to topics in this forum
You cannot edit your posts in this forum
You cannot delete your posts in this forum
You cannot post attachments in this forum

Search for:
Яндекс.Метрика
Powered by phpBB © 2000, 2002, 2005, 2007 phpBB Group