\m/ 80's metal \m/

Информационно-аналитический форум "80 см пыли" (In Search We Trust) "У нас никто никуда не спешит"
Me For You - http://me-4u.com
It is currently 20 Aug 2019

All times are UTC + 3 hours

Spoiler
Chat - temporary registration for foreign users (please leave your application here)







Post new topic Reply to topic  [ 7 posts ] 
Author Message
 
PostPosted: 25 Nov 2013 
Хиппей (support team)
User avatar
Joined: 30 Jul 2007
Posts: 114002
Lоcаtion: Киев (Kyiv, UA)
Age: 46
Name: Andrey
Roxxcalibur - 2009 - NWOBHM For Muthas [flac]

ImageImageImageImage


ImageImageImage

ImageImageImage

Genre: Heavy Metal
Location: Germany
Format: flac + cue + log scans
Size: 412 Mb


    1. Big Ben (Intro) - 00:35
    2. Running For The Line (Original by JJ's Powerhouse 1983) - 03:51
    3. The Gates Of Gehenna (Original by Cloven Hoof 1982) - 05:18
    4. Seven Days Of Splendour (Original by Jameson Raid 1979) - 03:50
    5. Rainbow Warrior (Original by Bleak House 1980) - 04:43
    6. Axe Crazy (Original by Jaguar 1982) - 03:15
    7. Lady Of Mars (Original by Dark Star 1980) - 04:19
    8. Destiny (Original by Trident 1984) - 05:21
    9. War Of The Ring (Original by ARC 1981) - 04:24
    10. Witchfinder General (Original by Witchfinder General 1982) - 04:01
    11. Let It Loose (Original by Savage 1981) - 03:42
    12. Angel Of Fear (Original by Radium 1981) - 02:56
    13. Spirit Of The Chateaux (Original by Chateaux 1983) - 06:29
    14. See You In Hell (Original by Grim Reaper 1983) - 04:32

Подробности по музыке группы чуть позже...
Впрочем, можно уже сейчас очень кратко - группа отличилась тем, что перепела за два альбома известные и не очень хиты старых коллективов, исполнявших в начале 80-х такую музыку как NWOBHM :dance:
Ну и сделала это более чем достойно :meloman:

mirror: M-Cloud l Narod

Source: http://rutracker.org/forum/viewtopic.php?t=1801235

log
Exact Audio Copy V0.99 prebeta 4 from 23. January 2008

Отчёт EAC об извлечении, выполненном 28. апреля 2009, 16:57

ROXXCALIBUR / NWOBHM For Muthas!

Дисковод: _NEC DVD_RW ND-3500AG Adapter: 3 ID: 0

Режим чтения : Достоверность
Использование точного потока : Да
Отключение кэша аудио : Да
Использование указателей C2 : Нет

Коррекция смещения при чтении : 48
Способность читать области Lead-in и Lead-out : Нет
Заполнение пропущенных сэмплов тишиной : Да
Удаление блоков с тишиной в начале и конце : Нет
При вычислениях CRC использовались нулевые сэмплы : Да
Интерфейс : Установленный внешний ASPI-интерфейс

Выходной формат : Внутренние WAV-операции
Формат сэмплов : 44.100 Гц; 16 бит; стерео


TOC извлечённого CD

Трек | Старт | Длительность | Начальный сектор | Конечный сектор
---------------------------------------------------------------------
1 | 0:00.00 | 0:35.21 | 0 | 2645
2 | 0:35.21 | 3:51.02 | 2646 | 19972
3 | 4:26.23 | 5:18.11 | 19973 | 43833
4 | 9:44.34 | 3:50.10 | 43834 | 61093
5 | 13:34.44 | 4:43.26 | 61094 | 82344
6 | 18:17.70 | 3:15.56 | 82345 | 97025
7 | 21:33.51 | 4:19.57 | 97026 | 116507
8 | 25:53.33 | 5:21.42 | 116508 | 140624
9 | 31:15.00 | 4:24.60 | 140625 | 160484
10 | 35:39.60 | 4:01.01 | 160485 | 178560
11 | 39:40.61 | 3:42.67 | 178561 | 195277
12 | 43:23.53 | 2:56.60 | 195278 | 208537
13 | 46:20.38 | 6:29.30 | 208538 | 237742
14 | 52:49.68 | 4:32.02 | 237743 | 258144


Характеристики диапазона извлечения и сообщения об ошибках

Выбранный диапазон

Имя файла D:\ROXXCALIBUR - NWOBHM For Muthas!.wav

Пиковый уровень 100.0 %
Качество диапазона 99.9 %
CRC теста 94360CE2
CRC копии 94360CE2
Копирование... OK

Ошибок не произошло


AccurateRip: сводка

Трек 1 нет в базе данных
Трек 2 нет в базе данных
Трек 3 нет в базе данных
Трек 4 нет в базе данных
Трек 5 нет в базе данных
Трек 6 нет в базе данных
Трек 7 нет в базе данных
Трек 8 нет в базе данных
Трек 9 нет в базе данных
Трек 10 нет в базе данных
Трек 11 нет в базе данных
Трек 12 нет в базе данных
Трек 13 нет в базе данных
Трек 14 нет в базе данных

Ни одного трека нет в базе AccurateRip

Конец отчёта

cue
REM GENRE NWOBHM
REM DATE 2009
REM DISCID CC0D710E
REM COMMENT "ExactAudioCopy v0.99pb4"
PERFORMER "ROXXCALIBUR"
TITLE "NWOBHM For Muthas!"
FILE "ROXXCALIBUR - NWOBHM For Muthas!.wav" WAVE
TRACK 01 AUDIO
TITLE "Big Ben"
PERFORMER "ROXXCALIBUR"
FLAGS DCP
INDEX 01 00:00:00
TRACK 02 AUDIO
TITLE "Running For The Line"
PERFORMER "ROXXCALIBUR"
FLAGS DCP
INDEX 01 00:35:21
TRACK 03 AUDIO
TITLE "The Gates Of Gehenna"
PERFORMER "ROXXCALIBUR"
FLAGS DCP
INDEX 01 04:26:23
TRACK 04 AUDIO
TITLE "Seven Days Of Splendour"
PERFORMER "ROXXCALIBUR"
FLAGS DCP
INDEX 01 09:44:34
TRACK 05 AUDIO
TITLE "Rainbow Warrior"
PERFORMER "ROXXCALIBUR"
FLAGS DCP
INDEX 01 13:34:44
TRACK 06 AUDIO
TITLE "Axe Crazy"
PERFORMER "ROXXCALIBUR"
FLAGS DCP
INDEX 01 18:17:70
TRACK 07 AUDIO
TITLE "Lady Of Mars"
PERFORMER "ROXXCALIBUR"
FLAGS DCP
INDEX 01 21:33:51
TRACK 08 AUDIO
TITLE "Destiny"
PERFORMER "ROXXCALIBUR"
FLAGS DCP
INDEX 01 25:53:33
TRACK 09 AUDIO
TITLE "War Of The Ring"
PERFORMER "ROXXCALIBUR"
FLAGS DCP
INDEX 01 31:15:00
TRACK 10 AUDIO
TITLE "Witchfinder General"
PERFORMER "ROXXCALIBUR"
FLAGS DCP
INDEX 01 35:39:60
TRACK 11 AUDIO
TITLE "Let It Loose"
PERFORMER "ROXXCALIBUR"
FLAGS DCP
INDEX 01 39:40:61
TRACK 12 AUDIO
TITLE "Angel Of Fear"
PERFORMER "ROXXCALIBUR"
FLAGS DCP
INDEX 01 43:23:53
TRACK 13 AUDIO
TITLE "Spirit Of The Chateaux"
PERFORMER "ROXXCALIBUR"
FLAGS DCP
INDEX 01 46:20:38
TRACK 14 AUDIO
TITLE "See You In Hell"
PERFORMER "ROXXCALIBUR"
FLAGS DCP
INDEX 01 52:49:68


phpBB [youtube]

_________________


Top
 Profile E-mail  
 
 
PostPosted: 25 Nov 2013 
Хиппей (support team)
User avatar
Joined: 30 Jul 2007
Posts: 114002
Lоcаtion: Киев (Kyiv, UA)
Age: 46
Name: Andrey
Roxxcalibur - 2011 - Lords Of The NWOBHM [flac]

ImageImageImageImage

ImageImageImage

ImageImage

Genre: Heavy Metal
Location: Germany
Format: flac + cue + log scans
Size: 444 Mb


Source: http://rutracker.org/forum/viewtopic.php?t=3642247

mirror: M-Cloud l Narod

log
Exact Audio Copy V1.0 beta 2 from 29. April 2011

EAC extraction logfile from 6. July 2011, 16:13

Roxxcalibur / Lords Of The NWOBHM

Used drive : ATAPI DVD A DH16ABSH Adapter: 0 ID: 1

Read mode : Secure
Utilize accurate stream : Yes
Defeat audio cache : Yes
Make use of C2 pointers : No

Read offset correction : 6
Overread into Lead-In and Lead-Out : No
Fill up missing offset samples with silence : Yes
Delete leading and trailing silent blocks : No
Null samples used in CRC calculations : Yes
Used interface : Installed external ASPI interface

Used output format : Internal WAV Routines
Sample format : 44.100 Hz; 16 Bit; Stereo


TOC of the extracted CD

Track | Start | Length | Start sector | End sector
---------------------------------------------------------
1 | 0:00.00 | 0:13.69 | 0 | 1043
2 | 0:13.69 | 3:46.50 | 1044 | 18043
3 | 4:00.44 | 3:18.39 | 18044 | 32932
4 | 7:19.08 | 2:59.53 | 32933 | 46410
5 | 10:18.61 | 3:13.41 | 46411 | 60926
6 | 13:32.27 | 5:58.49 | 60927 | 87825
7 | 19:31.01 | 5:20.03 | 87826 | 111828
8 | 24:51.04 | 4:39.70 | 111829 | 132823
9 | 29:30.74 | 3:34.34 | 132824 | 148907
10 | 33:05.33 | 5:45.06 | 148908 | 174788
11 | 38:50.39 | 5:42.25 | 174789 | 200463
12 | 44:32.64 | 3:56.60 | 200464 | 218223
13 | 48:29.49 | 5:16.50 | 218224 | 241973
14 | 53:46.24 | 5:19.38 | 241974 | 265936
15 | 59:05.62 | 2:11.12 | 265937 | 275773


Range status and errors

Selected range

Filename D:\Roxxcalibur - Lords Of The NWOBHM.wav

Peak level 100.0 %
Extraction speed 9.4 X
Range quality 100.0 %
Test CRC DD6AE72F
Copy CRC DD6AE72F
Copy OK

No errors occurred


AccurateRip summary

Track 1 not present in database
Track 2 not present in database
Track 3 not present in database
Track 4 not present in database
Track 5 not present in database
Track 6 not present in database
Track 7 not present in database
Track 8 not present in database
Track 9 not present in database
Track 10 not present in database
Track 11 not present in database
Track 12 not present in database
Track 13 not present in database
Track 14 not present in database
Track 15 not present in database

None of the tracks are present in the AccurateRip database

End of status report

cue
REM GENRE NWOBHM
REM DATE 2011
REM DISCID C10E5C0F
REM COMMENT "ExactAudioCopy v1.0b2"
PERFORMER "Roxxcalibur"
TITLE "Lords Of The NWOBHM"
FILE "Roxxcalibur - Lords Of The NWOBHM.wav" WAVE
TRACK 01 AUDIO
TITLE "London Bridge Is Falling Down (Intro)"
PERFORMER "Roxxcalibur"
FLAGS DCP
INDEX 01 00:00:00
TRACK 02 AUDIO
TITLE "Atomic Rock "
PERFORMER "Roxxcalibur"
FLAGS DCP
INDEX 01 00:13:69
TRACK 03 AUDIO
TITLE "Heads Will Roll"
PERFORMER "Roxxcalibur"
FLAGS DCP
INDEX 01 04:00:44
TRACK 04 AUDIO
TITLE "Flying High "
PERFORMER "Roxxcalibur"
FLAGS DCP
INDEX 01 07:19:08
TRACK 05 AUDIO
TITLE "Day To Day"
PERFORMER "Roxxcalibur"
FLAGS DCP
INDEX 00 10:16:61
INDEX 01 10:18:61
TRACK 06 AUDIO
TITLE "If Heaven Is Hell"
PERFORMER "Roxxcalibur"
FLAGS DCP
INDEX 01 13:32:27
TRACK 07 AUDIO
TITLE "Lift Up Your Eyes"
PERFORMER "Roxxcalibur"
FLAGS DCP
INDEX 01 19:31:01
TRACK 08 AUDIO
TITLE "Satan's Serenade"
PERFORMER "Roxxcalibur"
FLAGS DCP
INDEX 01 24:51:04
TRACK 09 AUDIO
TITLE "Hellbound"
PERFORMER "Roxxcalibur"
FLAGS DCP
INDEX 01 29:30:74
TRACK 10 AUDIO
TITLE "Music Power "
PERFORMER "Roxxcalibur"
FLAGS DCP
INDEX 01 33:05:33
TRACK 11 AUDIO
TITLE "Angel Of Death"
PERFORMER "Roxxcalibur"
FLAGS DCP
INDEX 00 38:48:39
INDEX 01 38:50:39
TRACK 12 AUDIO
TITLE "A Face In The Crowd "
PERFORMER "Roxxcalibur"
FLAGS DCP
INDEX 01 44:32:64
TRACK 13 AUDIO
TITLE "Battlescarred"
PERFORMER "Roxxcalibur"
FLAGS DCP
INDEX 01 48:29:49
TRACK 14 AUDIO
TITLE "Stage Fright "
PERFORMER "Roxxcalibur"
FLAGS DCP
INDEX 00 53:44:24
INDEX 01 53:46:24
TRACK 15 AUDIO
TITLE "At War With Satan "
PERFORMER "Roxxcalibur"
FLAGS DCP
INDEX 00 59:01:62
INDEX 01 59:05:62

_________________


Top
 Profile E-mail  
 
 
PostPosted: 26 Nov 2013 
Я набрал 1000 сообщений!
Joined: 02 Aug 2007
Posts: 1407
Lоcаtion: пос. Удельная
Age: 42
Name: Стас
После прослушивания Мастерс оф дисгайз я "почему-то" тоже решил переслушать Рокскалибур ;)


Top
 Profile  
 
 
PostPosted: 26 Nov 2013 
Хиппей (support team)
User avatar
Joined: 30 Jul 2007
Posts: 114002
Lоcаtion: Киев (Kyiv, UA)
Age: 46
Name: Andrey
Вот и я ж тоже пошёл от обратного :crazy:

_________________


Top
 Profile E-mail  
 
 
PostPosted: 29 Nov 2013 
\m/ 80 см сала \m/
User avatar
Joined: 12 Mar 2012
Posts: 2590
Age: 26
Name: Nick
:thanx:

_________________
1990 AUROPHON BRAINSTORM (Germany) - lossless
1994 MAUSOLEUM CLASSIX (Belgium-Germany) - lossless
1998 VA - GRIM HARVEST - Complete Metal Massacre Volumes I-XII


Top
 Profile  
 
 
PostPosted: 03 Dec 2013 
Alive Again
User avatar
Joined: 17 Dec 2008
Posts: 4747
Lоcаtion: Курск Воронеж Оскол
Age: 45
Name: Дмитрий
:thanx:


Top
 Profile E-mail  
 
 
PostPosted: 22 Nov 2015 
Partisanen - nicht kapitulieren!!
User avatar
Joined: 25 Dec 2011
Posts: 7086
Lоcаtion: партизанские леса
Age: 46
Name: Владимир
ещё и 2015 есть у них - Gems Of The NWOBHM
Image
Треклист:
01. Why Don't You Kill Me? (Original: LEGEND)
02. Soldiers Of War (Original: SATAN'S EMPIRE)
03. Paper Chaser (Original: TAURUS)
04. Running Blind (Original: BASHFUL ALLEY)
05. Fool's Gold (Original: VIRTUE)
06. Stormchild (Original: TRESPASS)
07. (The Age Of) Machine (Original: MYTHRA)
08. Hounds Of Hell (Original: SPLIT BEAVER)
09. Somewhere Up In The Mountains (Original: MARQUIS DE SADE)
10. Midnight Chaser (Original: WHITE SPIRIT)
11. Black Ice (Original: ARAGORN)
12. Panzer Division Destroyed (Original: BUDGIE)
13. Name, Rank & Serial Number (Original: FIST)

_________________
One more beer and Heavy Metal and I'm just fine!
старовер, куле... слово "блин" - до сих пор через Ъ говорю


Top
 Profile E-mail  
 
Display posts from previous:  Sort by  
Post new topic Reply to topic  [ 7 posts ] 

All times are UTC + 3 hours


Who is online

Users browsing this forum: No registered users and 1 guest


You cannot post new topics in this forum
You cannot reply to topics in this forum
You cannot edit your posts in this forum
You cannot delete your posts in this forum
You cannot post attachments in this forum

Search for:
Яндекс.Метрика
Powered by phpBB © 2000, 2002, 2005, 2007 phpBB Group