\m/ 80's metal \m/

Информационно-аналитический форум "80 см пыли" (In Search We Trust) "У нас никто никуда не спешит"
Me For You - http://me-4u.com
It is currently 26 Aug 2019

All times are UTC + 3 hours

Spoiler
Chat - temporary registration for foreign users (please leave your application here)







Post new topic Reply to topic  [ 13 posts ] 
Author Message
 
PostPosted: 21 Nov 2013 
Рарник и трушник
User avatar
Joined: 25 Dec 2009
Posts: 8733
Lоcаtion: Москва
Age: 54
Name: Виталий
Image

Random
Randomised

Type: Full-length
Release date: March 1990
Label: Bellaphon Records (CD Metal Enterprises ME 531)

1. Randomised 03:48
2. Follow the Signs 02:29
3. Meat Inspector 03:19
4. Night by Night 02:44
5. Keep Standing 03:57
6. Heart Beat 05:17
7. Rainbow 04:28
8. Burning 03:57
9. I Surrender 05:25
10. Rock Hard 03:44
39:08

CD RIP FLAC EAC 16/44 http://f-bit.ru/285268

Exact Audio Copy V1.0 beta 3 from 29. August 2011

EAC extraction logfile from 21. November 2013, 21:00

Random / Randomised
LOG
Used drive : HL-DT-STBD-RE BE08LU20 Adapter: 1 ID: 0

Read mode : Secure
Utilize accurate stream : Yes
Defeat audio cache : Yes
Make use of C2 pointers : No

Read offset correction : 667
Overread into Lead-In and Lead-Out : No
Fill up missing offset samples with silence : Yes
Delete leading and trailing silent blocks : No
Null samples used in CRC calculations : Yes
Used interface : Native Win32 interface for Win NT & 2000

Used output format : User Defined Encoder
Selected bitrate : 768 kBit/s
Quality : High
Add ID3 tag : No
Command line compressor : C:\Program Files (x86)\Exact Audio Copy\FLAC\FLAC.EXE
Additional command line options : -6 -V -T "ARTIST=%artist%" -T "TITLE=%title%" -T "ALBUM=%albumtitle%" -T "DATE=%year%" -T "TRACKNUMBER=%tracknr%" -T "GENRE=%genre%" -T "COMMENT=%comment%" -T "BAND=%albuminterpret%" -T "ALBUMARTIST=%albuminterpret%" -T "COMPOSER=%composer%" %haslyrics%--tag-from-file=LYRICS="%lyricsfile%"%haslyrics% -T "DISCNUMBER=%cdnumber%" -T "TOTALDISCS=%totalcds%" -T "TOTALTRACKS=%numtracks%" %hascover%--picture="%coverfile%"%hascover% %source% -o %dest%


TOC of the extracted CD

Track | Start | Length | Start sector | End sector
---------------------------------------------------------
1 | 0:00.00 | 3:49.50 | 0 | 17224
2 | 3:49.50 | 2:29.50 | 17225 | 28449
3 | 6:19.25 | 3:18.50 | 28450 | 43349
4 | 9:38.00 | 2:45.00 | 43350 | 55724
5 | 12:23.00 | 3:58.50 | 55725 | 73624
6 | 16:21.50 | 5:18.67 | 73625 | 97541
7 | 21:40.42 | 4:32.08 | 97542 | 117949
8 | 26:12.50 | 3:58.00 | 117950 | 135799
9 | 30:10.50 | 5:26.50 | 135800 | 160299
10 | 35:37.25 | 3:46.45 | 160300 | 177294


Range status and errors

Selected range

Filename F:\MUSIC\Random-1990-Randomised\Random - Randomised.wav

Peak level 100.0 %
Extraction speed 1.7 X
Range quality 100.0 %
Copy CRC CC7C1EE2
Copy OK

No errors occurred


AccurateRip summary

Track 1 not present in database
Track 2 not present in database
Track 3 not present in database
Track 4 not present in database
Track 5 not present in database
Track 6 not present in database
Track 7 not present in database
Track 8 not present in database
Track 9 not present in database
Track 10 not present in database

None of the tracks are present in the AccurateRip database

End of status report

==== Log checksum A900C0DED7FA5590F329C253F10972656871FA00C67A88586EAED365D87030A8 ====


Last edited by Vitaly65 on 21 Nov 2013, edited 1 time in total.

Top
 Profile  
 
 
PostPosted: 21 Nov 2013 
Хиппей (support team)
User avatar
Joined: 30 Jul 2007
Posts: 114095
Lоcаtion: Киев (Kyiv, UA)
Age: 46
Name: Andrey
:thanx:

mirror: Narod l M-Cloud

_________________


Top
 Profile E-mail  
 
 
PostPosted: 21 Nov 2013 
Alive Again
User avatar
Joined: 17 Dec 2008
Posts: 4747
Lоcаtion: Курск Воронеж Оскол
Age: 45
Name: Дмитрий
:thanx:


Top
 Profile E-mail  
 
 
PostPosted: 22 Nov 2013 
Доктор энтомологии
User avatar
Joined: 22 Jan 2009
Posts: 9851
Lоcаtion: Даугавпилс
Age: 44
Name: Алексей
:thanx:


Top
 Profile  
 
 
PostPosted: 22 Nov 2013 
Прокъмитолист
User avatar
Joined: 12 Aug 2007
Posts: 6593
Lоcаtion: Санктъ-Петербуркъ
Age: 51
Name: Олекъ
спасибо, Виталь :thanx:

_________________
прокъметол - это музыко, от которово есть прок (ы)


Top
 Profile  
 
 
PostPosted: 22 Nov 2013 
Труъ
User avatar
Joined: 27 Feb 2009
Posts: 186
Lоcаtion: Питер
Age: 52
Name: Олег
:thanx:


Top
 Profile  
 
 
PostPosted: 22 Nov 2013 
А может смените мне статус?..
User avatar
Joined: 24 Sep 2012
Posts: 856
Lоcаtion: Нижегородская обл.
Age: 49
Name: Вячеслав
Виталий огромное спасибо! :thanx: :meloman:

_________________
Image


Top
 Profile E-mail  
 
 
PostPosted: 24 Nov 2013 
\m/ 80 см сала \m/
User avatar
Joined: 12 Mar 2012
Posts: 2590
Age: 26
Name: Nick
:thanx:

_________________
1990 AUROPHON BRAINSTORM (Germany) - lossless
1994 MAUSOLEUM CLASSIX (Belgium-Germany) - lossless
1998 VA - GRIM HARVEST - Complete Metal Massacre Volumes I-XII


Top
 Profile  
 
 
PostPosted: 31 Jan 2014 
\m/ 80 см сала \m/
User avatar
Joined: 12 Mar 2012
Posts: 2590
Age: 26
Name: Nick
Пасибке-то оставил, а альбом послушать забыл :shok:

_________________
1990 AUROPHON BRAINSTORM (Germany) - lossless
1994 MAUSOLEUM CLASSIX (Belgium-Germany) - lossless
1998 VA - GRIM HARVEST - Complete Metal Massacre Volumes I-XII


Top
 Profile  
 
 
PostPosted: 31 Jan 2014 
Доктор энтомологии
User avatar
Joined: 22 Jan 2009
Posts: 9851
Lоcаtion: Даугавпилс
Age: 44
Name: Алексей
Тоже не слушал. Включил вот под работку, нормально идет вроде, получше 85-го намного :meloman: :true:
Темы, которые бодрые - клевые, а вот баллады (особенно первая) выморозили) Воображение нарисовало полную женщину бальзаковского возраста, которая поет о разбитой любви)) По стилю наверное мелодик хард с уклоном в мотли кру?


Top
 Profile  
 
 
PostPosted: 01 Feb 2014 
Хиппей (support team)
User avatar
Joined: 30 Jul 2007
Posts: 114095
Lоcаtion: Киев (Kyiv, UA)
Age: 46
Name: Andrey
Тоже надо будет как-то скачать заново и послушать :oops:

_________________


Top
 Profile E-mail  
 
 
PostPosted: 03 Feb 2014 
Рарник и трушник
User avatar
Joined: 25 Dec 2009
Posts: 8733
Lоcаtion: Москва
Age: 54
Name: Виталий
Entomologist wrote:
По стилю наверное мелодик хард с уклоном в мотли кру?

Скорее мелодик хеви, т.к. есть там и спиднячковый трек. По тевтонски так сделан альбомчик, следующие альбомы - вот там хард. :umnik:


Top
 Profile  
 
 
PostPosted: 09 Jan 2015 
Работнечег
User avatar
Joined: 28 Aug 2007
Posts: 5954
Lоcаtion: г. Москва
Age: 30
Name: Дима
:true:


Top
 Profile E-mail  
 
Display posts from previous:  Sort by  
Post new topic Reply to topic  [ 13 posts ] 

All times are UTC + 3 hours


Who is online

Users browsing this forum: No registered users and 1 guest


You cannot post new topics in this forum
You cannot reply to topics in this forum
You cannot edit your posts in this forum
You cannot delete your posts in this forum
You cannot post attachments in this forum

Search for:
Яндекс.Метрика
Powered by phpBB © 2000, 2002, 2005, 2007 phpBB Group