\m/ 80's metal \m/

Информационно-аналитический форум "80 см пыли" (In Search We Trust) "У нас никто никуда не спешит"
Me For You - http://me-4u.com
It is currently 21 Aug 2019

All times are UTC + 3 hours

Spoiler
Chat - temporary registration for foreign users (please leave your application here)







Post new topic Reply to topic  [ 17 posts ] 
Author Message
 
PostPosted: 10 Sep 2013 
\m/ 80 см сала \m/
User avatar
Joined: 12 Mar 2012
Posts: 2590
Age: 26
Name: Nick
Rochus - Haunting In Your Brain Demos & Raritäten (1988-1990)

Image

http://www.musik-sammler.de/media/776822

01. Intro 0:54
02. Excalibur 4:14
03. Let´s Thrash 4:33
04. Nur Ein Traum 3:49
05. St. Rochus 3:18
06. Mithridates 4:21
07. Haunting In Your Brain 6:06
08. Frankenstein 5:36
09. Excalibur 5:18
10. Let´s Thrash 5:40
11. Poltergeist 4:46
12. Godzilla 4:18
13. Black Death 4:06
14. Holy War 4:31
15. New Horizons 3:59
16. Plastic Life 3:43
17. Excalibur 3:59
18. Let´s Thrash 4:25

musik-sammler wrote:
Titel 1-6 unveröffentlichte Demoaufnahmen (Mai 1988)
Titel 7-8 Rundfunkproduktion (Januar 1990)
Titel 9+11 Demoaufnahmen 1989 (Datum unbekannt)
Titel 10 Rundfunkproduktion (Januar 1989)
Titel 12-16 "Years Of Ignorance" Demokassette (April 1990)
Titel 17-18 Live in Hundeshagen (25. Juni 1988)

_________________
1990 AUROPHON BRAINSTORM (Germany) - lossless
1994 MAUSOLEUM CLASSIX (Belgium-Germany) - lossless
1998 VA - GRIM HARVEST - Complete Metal Massacre Volumes I-XII


Top
 Profile  
 
 
PostPosted: 17 Dec 2014 
Rara avis
User avatar
Joined: 27 Jan 2009
Posts: 5205
Name: .
Здесь вот человек выложил полную демку 1989 года Years of Ignorance
https://www.youtube.com/user/ptola/videos


Top
 Profile E-mail  
 
 
PostPosted: 17 Dec 2014 
\m/ 80 см сала \m/
User avatar
Joined: 12 Mar 2012
Posts: 2590
Age: 26
Name: Nick
Спасибо, через годик-другой выковыряю в мп3 :benya:

_________________
1990 AUROPHON BRAINSTORM (Germany) - lossless
1994 MAUSOLEUM CLASSIX (Belgium-Germany) - lossless
1998 VA - GRIM HARVEST - Complete Metal Massacre Volumes I-XII


Top
 Profile  
 
 
PostPosted: 17 Dec 2014 
Хиппей (support team)
User avatar
Joined: 30 Jul 2007
Posts: 114011
Lоcаtion: Киев (Kyiv, UA)
Age: 46
Name: Andrey
На Трашмаге http://www.thrashmageddon.com/forum/ind ... opic=27411 выкладывали вот такой вариант.
Просить перелить?

Rochus (Erfurt) - "Studio Tracks 1988-89"

00 Frankenstein (1989)
01 Let's Thrash (1989)
02 Excalibur (1988)


Rochus "Years of ignorance" Demo 1989

01 Godzilla
02 Black death
03 Holy war
04 Haunting in your brain
05 New horizons
06 Plastic life


Bitrate: 192 kbps

_________________


Top
 Profile E-mail  
 
 
PostPosted: 17 Dec 2014 
\m/ 80 см сала \m/
User avatar
Joined: 12 Mar 2012
Posts: 2590
Age: 26
Name: Nick
О, попроси - думаю, получше будет, чем с ютубы рипать :dance:

_________________
1990 AUROPHON BRAINSTORM (Germany) - lossless
1994 MAUSOLEUM CLASSIX (Belgium-Germany) - lossless
1998 VA - GRIM HARVEST - Complete Metal Massacre Volumes I-XII


Top
 Profile  
 
 
PostPosted: 17 Dec 2014 
Персональный статус
User avatar
Joined: 28 Mar 2013
Posts: 421
Lоcаtion: Russia (Bryansk)
Age: 25
Name: Michael
Есть такое без Frankenstein, выкладывать?


Top
 Profile E-mail  
 
 
PostPosted: 17 Dec 2014 
Персональный статус
User avatar
Joined: 28 Mar 2013
Posts: 421
Lоcаtion: Russia (Bryansk)
Age: 25
Name: Michael
Короче у меня так:

Rochus (Ger) - Aufnahme [Demo] (1989) [192]
01 - Lets Thrash
02 - Excalibur

Rochus (Ger) - Years of Ignorance [Demo] (1989) [192]
01 - Godzilla
02 - Black Death
03 - Holy War
04 - Haunting in Your Brain
05 - New Horizons
06 - Plastic Life

Link: Cloud Mail


Top
 Profile E-mail  
 
 
PostPosted: 17 Dec 2014 
Хиппей (support team)
User avatar
Joined: 30 Jul 2007
Posts: 114011
Lоcаtion: Киев (Kyiv, UA)
Age: 46
Name: Andrey
Liege Steel wrote:
Короче у меня так:

:thanx:
Сойдёт, спасибо. Скорее всего и там нет Штэйна того. Он там чота под нумером нульц :fingal:

_________________


Top
 Profile E-mail  
 
 
PostPosted: 18 Dec 2014 
Генеральный thrasher
User avatar
Joined: 03 Oct 2008
Posts: 3717
Lоcаtion: Ханты-Мансийский АО
Age: 44
Name: Сергей
Может диск кто-нибудь хочет купить?

http://www.shop-027.de/ostmetal-p5h1s6- ... -In-Y.html


Top
 Profile  
 
 
PostPosted: 19 Dec 2014 
Работнечег
User avatar
Joined: 28 Aug 2007
Posts: 5935
Lоcаtion: г. Москва
Age: 30
Name: Дима
Если что, я покупал с этого сайта, продавец проверенный, всё дошло без проблем!


Top
 Profile E-mail  
 
 
PostPosted: 19 Dec 2014 
Хиппей (support team)
User avatar
Joined: 30 Jul 2007
Posts: 114011
Lоcаtion: Киев (Kyiv, UA)
Age: 46
Name: Andrey
Вроде и не дорого, а диск не нужен, тем более с демками.
Или сбросим после покупки диск Димке, а он нам лося, га? :lloo:

_________________


Top
 Profile E-mail  
 
 
PostPosted: 20 Dec 2014 
Генеральный thrasher
User avatar
Joined: 03 Oct 2008
Posts: 3717
Lоcаtion: Ханты-Мансийский АО
Age: 44
Name: Сергей
Банда то неплохая в целом.


Top
 Profile  
 
 
PostPosted: 20 Dec 2014 
Работнечег
User avatar
Joined: 28 Aug 2007
Posts: 5935
Lоcаtion: г. Москва
Age: 30
Name: Дима
Вроде и не дорого, а диск не нужен, тем более с демками.
Или сбросим после покупки диск Димке, а он нам лося, га? :lloo:

Можно и сбросится, я не против :true:


Top
 Profile E-mail  
 
 
PostPosted: 25 Jan 2019 
Работнечег
User avatar
Joined: 28 Aug 2007
Posts: 5935
Lоcаtion: г. Москва
Age: 30
Name: Дима
Rochus - Haunting In Your Brain Demos & Raritäten (1988-1990) FLAC

Image

Tracklist:
1. Intro 0:54 I
2. Excalibur 4:14
3. Let´s Thrash 4:33
4. Nur Ein Traum 3:49
5. St. Rochus 3:18 I
6. Mithridates 4:21
7. Haunting In Your Brain 6:06
8. Frankenstein 5:36
9. Excalibur 5:18
10. Let´s Thrash 5:40
11. Poltergeist 4:46
12. Godzilla 4:18
13. Black Death 4:06
14. Holy War 4:31
15. New Horizons 3:59
16. Plastic Life 3:43
17. Excalibur 3:59
18. Let´s Thrash 4:25

LOG
Exact Audio Copy V0.99 prebeta 5 from 4. May 2009

EAC extraction logfile from 13. December 2018, 19:33

Rochus / Haunting In Your Brain (Compilation)

Used drive : PIONEER DVD-RW DVR-221 Adapter: 2 ID: 1

Read mode : Secure
Utilize accurate stream : Yes
Defeat audio cache : Yes
Make use of C2 pointers : No

Read offset correction : 6
Overread into Lead-In and Lead-Out : No
Fill up missing offset samples with silence : Yes
Delete leading and trailing silent blocks : No
Null samples used in CRC calculations : Yes
Used interface : Native Win32 interface for Win NT & 2000

Used output format : User Defined Encoder
Selected bitrate : 32 kBit/s
Quality : High
Add ID3 tag : No
Command line compressor : C:\Program Files\Exact Audio Copy\Flac\flac.exe
Additional command line options : -6 -V %s


TOC of the extracted CD

Track | Start | Length | Start sector | End sector
---------------------------------------------------------
1 | 0:00.00 | 0:55.10 | 0 | 4134
2 | 0:55.10 | 4:14.63 | 4135 | 23247
3 | 5:09.73 | 4:33.30 | 23248 | 43752
4 | 9:43.28 | 3:49.73 | 43753 | 61000
5 | 13:33.26 | 3:18.09 | 61001 | 75859
6 | 16:51.35 | 4:21.23 | 75860 | 95457
7 | 21:12.58 | 6:06.61 | 95458 | 122968
8 | 27:19.44 | 5:36.09 | 122969 | 148177
9 | 32:55.53 | 5:18.37 | 148178 | 172064
10 | 38:14.15 | 5:40.14 | 172065 | 197578
11 | 43:54.29 | 4:46.28 | 197579 | 219056
12 | 48:40.57 | 4:18.20 | 219057 | 238426
13 | 52:59.02 | 4:06.57 | 238427 | 256933
14 | 57:05.59 | 4:31.26 | 256934 | 277284
15 | 61:37.10 | 3:59.22 | 277285 | 295231
16 | 65:36.32 | 3:43.19 | 295232 | 311975
17 | 69:19.51 | 3:59.13 | 311976 | 329913
18 | 73:18.64 | 4:25.06 | 329914 | 349794


Range status and errors

Selected range

Filename D:\Музыка\Lossless\Rochus - Haunting In Your Brain (Compilation)(2012)\Rochus - Haunting In Your Brain (Compilation).wav

Peak level 100.0 %
Range quality 100.0 %
Copy CRC 78B92169
Copy OK

No errors occurred


AccurateRip summary

Track 1 cannot be verified as accurate (confidence 2) [1D5D5451], AccurateRip returned [E607799E]
Track 2 cannot be verified as accurate (confidence 2) [B573E3E4], AccurateRip returned [80846350]
Track 3 cannot be verified as accurate (confidence 2) [E72AE6A1], AccurateRip returned [9260BDE5]
Track 4 cannot be verified as accurate (confidence 2) [375888F4], AccurateRip returned [63C67ECC]
Track 5 cannot be verified as accurate (confidence 2) [048BA2C4], AccurateRip returned [E37E211B]
Track 6 cannot be verified as accurate (confidence 2) [66566576], AccurateRip returned [CB2FD8CC]
Track 7 cannot be verified as accurate (confidence 2) [122D54B2], AccurateRip returned [E09FFDFF]
Track 8 cannot be verified as accurate (confidence 2) [3C2928EA], AccurateRip returned [468E0887]
Track 9 cannot be verified as accurate (confidence 2) [093CF15C], AccurateRip returned [0349CA01]
Track 10 cannot be verified as accurate (confidence 2) [5AB55DBA], AccurateRip returned [9EEDD35F]
Track 11 cannot be verified as accurate (confidence 2) [85DFAEC6], AccurateRip returned [65C0AA86]
Track 12 cannot be verified as accurate (confidence 2) [E59FD3B0], AccurateRip returned [C9CCF31C]
Track 13 cannot be verified as accurate (confidence 2) [D347FE16], AccurateRip returned [116EE2E6]
Track 14 cannot be verified as accurate (confidence 2) [BCBD7371], AccurateRip returned [28FB74CB]
Track 15 cannot be verified as accurate (confidence 2) [DC814CF9], AccurateRip returned [E81EFA59]
Track 16 cannot be verified as accurate (confidence 2) [267DB094], AccurateRip returned [4C77A52A]
Track 17 cannot be verified as accurate (confidence 2) [857E3BCD], AccurateRip returned [A660B18F]
Track 18 cannot be verified as accurate (confidence 1) [0FB44AFB], AccurateRip returned [DD7338DA]

No tracks could be verified as accurate
You may have a different pressing from the one(s) in the database

End of status report

CUE
REM GENRE "Thrash Metal"
REM DATE 2012
REM DISCID 01123712
REM COMMENT "ExactAudioCopy v0.99pb5"
PERFORMER "Rochus"
TITLE "Haunting In Your Brain (Compilation)"
FILE "Rochus - Haunting In Your Brain (Compilation).flac" WAVE
TRACK 01 AUDIO
TITLE "Intro"
PERFORMER "Rochus"
INDEX 01 00:00:00
TRACK 02 AUDIO
TITLE "Excalibur"
PERFORMER "Rochus"
INDEX 01 00:55:10
TRACK 03 AUDIO
TITLE "Let's Trash"
PERFORMER "Rochus"
INDEX 01 05:09:73
TRACK 04 AUDIO
TITLE "Nur Ein Traum"
PERFORMER "Rochus"
INDEX 01 09:43:28
TRACK 05 AUDIO
TITLE "St. Rochus"
PERFORMER "Rochus"
INDEX 01 13:33:26
TRACK 06 AUDIO
TITLE "Mithridates"
PERFORMER "Rochus"
INDEX 01 16:51:35
TRACK 07 AUDIO
TITLE "Haunting In Your Brain"
PERFORMER "Rochus"
INDEX 01 21:12:58
TRACK 08 AUDIO
TITLE "Frankenstein"
PERFORMER "Rochus"
INDEX 01 27:19:44
TRACK 09 AUDIO
TITLE "Excalibur"
PERFORMER "Rochus"
INDEX 01 32:55:53
TRACK 10 AUDIO
TITLE "Let's Trash"
PERFORMER "Rochus"
INDEX 01 38:14:15
TRACK 11 AUDIO
TITLE "Poltergeist"
PERFORMER "Rochus"
INDEX 01 43:54:29
TRACK 12 AUDIO
TITLE "Godzilla"
PERFORMER "Rochus"
INDEX 01 48:40:57
TRACK 13 AUDIO
TITLE "Black Death"
PERFORMER "Rochus"
INDEX 01 52:59:02
TRACK 14 AUDIO
TITLE "Holy War"
PERFORMER "Rochus"
INDEX 01 57:05:59
TRACK 15 AUDIO
TITLE "New Horizons"
PERFORMER "Rochus"
INDEX 01 61:37:10
TRACK 16 AUDIO
TITLE "Plastic Life"
PERFORMER "Rochus"
INDEX 01 65:36:32
TRACK 17 AUDIO
TITLE "Excalibur (Live)"
PERFORMER "Rochus"
INDEX 01 69:19:51
TRACK 18 AUDIO
TITLE "Let's Trash (Live)"
PERFORMER "Rochus"
INDEX 01 73:18:64


Yadi


Top
 Profile E-mail  
 
 
PostPosted: 29 Jan 2019 
Хиппей (support team)
User avatar
Joined: 30 Jul 2007
Posts: 114011
Lоcаtion: Киев (Kyiv, UA)
Age: 46
Name: Andrey
:thanx:

mirror: Uloz l Drop l Narod l M-Cloud

_________________


Top
 Profile E-mail  
 
 
PostPosted: 29 Jan 2019 
Прокъмитолист
User avatar
Joined: 12 Aug 2007
Posts: 6590
Lоcаtion: Санктъ-Петербуркъ
Age: 51
Name: Олекъ
:thanx:

_________________
прокъметол - это музыко, от которово есть прок (ы)


Top
 Profile  
 
 
PostPosted: 01 Feb 2019 
Хиппей (support team)
User avatar
Joined: 30 Jul 2007
Posts: 114011
Lоcаtion: Киев (Kyiv, UA)
Age: 46
Name: Andrey
Прикольный Metal Punk из Германии :true: :true: :true:
Именно мэтал-панк, а не хардкор, кроссовер или трэш, как почти всюду указано в энциклопедиях.

Жаль, что хитовых песен маловато они записали...


7/10

_________________


Top
 Profile E-mail  
 
Display posts from previous:  Sort by  
Post new topic Reply to topic  [ 17 posts ] 

All times are UTC + 3 hours


Who is online

Users browsing this forum: No registered users and 3 guests


You cannot post new topics in this forum
You cannot reply to topics in this forum
You cannot edit your posts in this forum
You cannot delete your posts in this forum
You cannot post attachments in this forum

Search for:
Яндекс.Метрика
Powered by phpBB © 2000, 2002, 2005, 2007 phpBB Group