\m/ 80's metal \m/

Информационно-аналитический форум "80 см пыли" (In Search We Trust) "У нас никто никуда не спешит"
Железнодорожная биржа - RailAgent
It is currently 20 Jul 2018

All times are UTC + 3 hours

Spoiler
Chat - temporary registration for foreign users (please leave your application here)







Post new topic Reply to topic  [ 10 posts ] 
Author Message
 
PostPosted: 02 Sep 2013 
Трешер
User avatar
Joined: 25 Feb 2011
Posts: 1045
Lоcаtion: Харьков
Age: 41
Name: Aleksandr
Roxxi 1990 Drive It to Ya Hard - Hard Rock

Image

1. Drive It to Ya Hard! 2:50
2. Wild Child 3:19
3. Give It to Me 3:31
4. Take Me Down 3:09
5. Playin' Rough 4:17
6. Thrill Can Kill 4:05
7. Wasted Love 4:42
8. Searchin' for the Light 3:18
9. Fire in My Heart 3:39

Total Running Time: 32:50

Freddy Grasseschi - Lead and Back Vocals
Glenn Stewart - Bass and Back Vocals
Dave Sciammacco - All Guitar and Back Vocals
Tony Giustino - Drums and Back Vocals

Ножон лосик, или CD :true:

Прошляпил я этот сидюк :dash:


Top
 Profile E-mail  
 
 
PostPosted: 02 Sep 2013 
Хиппей (support team)
User avatar
Joined: 30 Jul 2007
Posts: 105156
Lоcаtion: Киев (Kyiv, UA)
Age: 45
Name: Andrey
http://rutracker.org/forum/viewtopic.php?t=4242607
Quote:
Источник (релизер): Lossless Kantor
:scratch:

_________________


Top
 Profile E-mail  
 
 
PostPosted: 02 Sep 2013 
Хиппей (support team)
User avatar
Joined: 30 Jul 2007
Posts: 105156
Lоcаtion: Киев (Kyiv, UA)
Age: 45
Name: Andrey
Ага, а вот и Кантор http://moole.ru/blog/kantormusic/news/4 ... -1990.html
Спрашиваем, авось у него есть диск :vic:

_________________


Top
 Profile E-mail  
 
 
PostPosted: 02 Sep 2013 
Хиппей (support team)
User avatar
Joined: 30 Jul 2007
Posts: 105156
Lоcаtion: Киев (Kyiv, UA)
Age: 45
Name: Andrey
А вот диск точно был или есть у Гриффоныча http://mjatezhnik.moole.ru/427663-roxxi ... -1990.html
В общем, пишем ему кому нужно. Я точно не буду, сорри =)

_________________


Top
 Profile E-mail  
 
 
PostPosted: 02 Sep 2013 
Трешер
User avatar
Joined: 25 Feb 2011
Posts: 1045
Lоcаtion: Харьков
Age: 41
Name: Aleksandr
Женю знаю я. Написал.


Top
 Profile E-mail  
 
 
PostPosted: 02 Sep 2013 
Хиппей (support team)
User avatar
Joined: 30 Jul 2007
Posts: 105156
Lоcаtion: Киев (Kyiv, UA)
Age: 45
Name: Andrey
Ура почти :dance:

_________________


Top
 Profile E-mail  
 
 
PostPosted: 05 Sep 2013 
Трешер
User avatar
Joined: 25 Feb 2011
Posts: 1045
Lоcаtion: Харьков
Age: 41
Name: Aleksandr
Андрюха попробуй ты , чот у меня с ним неоч получается .


Top
 Profile E-mail  
 
 
PostPosted: 28 Jul 2014 
парень в очёчкXаX!
User avatar
Joined: 15 Aug 2007
Posts: 2353
Lоcаtion: UK'раина, г. ЛондАн Би-Би-Си
Age: 47
Name: Сергей
почему не снят рэкс? или таки нету лося? :shok:
та вроде не дифцит как бы :vic:

на сколько помню, материал для меня очень слабенький, как для нач. 90-х,
но всё комманды одного альбома, по истечении нескольких десятков лет, рано или поздно становятся однозначно раритетными по своему материалу, даже, если последний был настолько провалным, шо комманде выплатили за контрактом ящик Цоцко-Цколы (на всех)
и забыли о их существовании на многие годы :fingal: :cry:

ежели шо, их йесть у меня, как бы, точно не помню, но типа был :benya:

Roxxi :true:


Top
 Profile  
 
 
PostPosted: 28 Jul 2014 
Хиппей (support team)
User avatar
Joined: 30 Jul 2007
Posts: 105156
Lоcаtion: Киев (Kyiv, UA)
Age: 45
Name: Andrey
Угу... http://rutracker.org/forum/viewtopic.php?t=4631225

_________________


Top
 Profile E-mail  
 
 
PostPosted: 28 Jul 2014 
Хиппей (support team)
User avatar
Joined: 30 Jul 2007
Posts: 105156
Lоcаtion: Киев (Kyiv, UA)
Age: 45
Name: Andrey
Image Image Image Image

mirror: M-Cloud l Narod

Понравился альбом, хоть и такой себе среднестатистический американский молодёжный хард-рок :pardon:

log
Exact Audio Copy V1.0 beta 3 from 29. August 2011

EAC extraction logfile from 7. March 2014, 21:50

Roxxi / Drive It To Ya Hard!

Used drive : MATSHITABD-CMB UJ242AS Adapter: 0 ID: 1

Read mode : Secure
Utilize accurate stream : Yes
Defeat audio cache : Yes
Make use of C2 pointers : No

Read offset correction : 103
Overread into Lead-In and Lead-Out : No
Fill up missing offset samples with silence : Yes
Delete leading and trailing silent blocks : No
Null samples used in CRC calculations : Yes
Used interface : Installed external ASPI interface

Used output format : User Defined Encoder
Selected bitrate : 1024 kBit/s
Quality : High
Add ID3 tag : Yes
Command line compressor : C:\Program Files (x86)\Exact Audio Copy\Flac\flac.exe
Additional command line options : -V -8 -T "Date=%year%" -T "Genre=%genre%" %source%


TOC of the extracted CD

Track | Start | Length | Start sector | End sector
---------------------------------------------------------
1 | 0:00.00 | 2:50.17 | 0 | 12766
2 | 2:50.17 | 3:19.60 | 12767 | 27751
3 | 6:10.02 | 3:31.58 | 27752 | 43634
4 | 9:41.60 | 3:09.12 | 43635 | 57821
5 | 12:50.72 | 4:17.60 | 57822 | 77156
6 | 17:08.57 | 4:05.08 | 77157 | 95539
7 | 21:13.65 | 4:42.27 | 95540 | 116716
8 | 25:56.17 | 3:18.20 | 116717 | 131586
9 | 29:14.37 | 3:39.50 | 131587 | 148061


Range status and errors

Selected range

Filename C:\EACrip\Roxxi - Drive It To Ya Hard!.wav

Peak level 100.0 %
Extraction speed 2.2 X
Range quality 100.0 %
Test CRC 8C07FCD2
Copy CRC 8C07FCD2
Copy OK

No errors occurred


AccurateRip summary

Track 1 cannot be verified as accurate (confidence 2) [17F02523], AccurateRip returned [D50D312D] (AR v2)
Track 2 cannot be verified as accurate (confidence 2) [D5BE3FDF], AccurateRip returned [83D77BB7] (AR v2)
Track 3 cannot be verified as accurate (confidence 2) [263B29FF], AccurateRip returned [611BC092] (AR v2)
Track 4 cannot be verified as accurate (confidence 2) [95BF6437], AccurateRip returned [0AE74655] (AR v2)
Track 5 cannot be verified as accurate (confidence 2) [F95131B7], AccurateRip returned [7BAD1C95] (AR v2)
Track 6 cannot be verified as accurate (confidence 2) [61673774], AccurateRip returned [7A54D407] (AR v2)
Track 7 cannot be verified as accurate (confidence 2) [312FE60E], AccurateRip returned [7CF63BBC] (AR v2)
Track 8 cannot be verified as accurate (confidence 2) [94F6166F], AccurateRip returned [8E5BE09D] (AR v2)
Track 9 cannot be verified as accurate (confidence 2) [243D4165], AccurateRip returned [F2E70663] (AR v2)

No tracks could be verified as accurate
You may have a different pressing from the one(s) in the database

End of status report

==== Log checksum 4B71638D68B4AFEF60B86B0A785AB49C27D259966B4DD2E61E14E50AF5B555C0 ====

cue
REM DISCID 7107B609
REM COMMENT "ExactAudioCopy v1.0b3"
PERFORMER "Roxxi"
TITLE "Drive It To Ya Hard!"
FILE "Roxxi - Drive It To Ya Hard!.flac" WAVE
TRACK 01 AUDIO
TITLE "Drive It To Ya Hard!"
PERFORMER "Roxxi"
INDEX 01 00:00:00
TRACK 02 AUDIO
TITLE "Wild Child"
PERFORMER "Roxxi"
INDEX 01 02:50:17
TRACK 03 AUDIO
TITLE "Give It To Me"
PERFORMER "Roxxi"
INDEX 01 06:10:02
TRACK 04 AUDIO
TITLE "Take Me Down"
PERFORMER "Roxxi"
INDEX 01 09:41:60
TRACK 05 AUDIO
TITLE "Playin' Rough"
PERFORMER "Roxxi"
INDEX 01 12:50:72
TRACK 06 AUDIO
TITLE "Thrill Can Kill"
PERFORMER "Roxxi"
INDEX 01 17:08:57
TRACK 07 AUDIO
TITLE "Wasted Love"
PERFORMER "Roxxi"
INDEX 01 21:13:65
TRACK 08 AUDIO
TITLE "Searchin' For The Light"
PERFORMER "Roxxi"
INDEX 01 25:56:17
TRACK 09 AUDIO
TITLE "Fire In My Heart"
PERFORMER "Roxxi"
INDEX 01 29:14:37

_________________


Top
 Profile E-mail  
 
Display posts from previous:  Sort by  
Post new topic Reply to topic  [ 10 posts ] 

All times are UTC + 3 hours


Who is online

Users browsing this forum: No registered users and 3 guests


You cannot post new topics in this forum
You cannot reply to topics in this forum
You cannot edit your posts in this forum
You cannot delete your posts in this forum
You cannot post attachments in this forum

Search for:
Яндекс.Метрика
Powered by phpBB © 2000, 2002, 2005, 2007 phpBB Group