\m/ 80's metal \m/

Информационно-аналитический форум "80 см пыли" (In Search We Trust) "У нас никто никуда не спешит"
Me For You - http://me-4u.com
It is currently 16 Dec 2018

All times are UTC + 3 hours

Spoiler
Chat - temporary registration for foreign users (please leave your application here)







Post new topic Reply to topic  [ 3 posts ] 
Author Message
 
PostPosted: 05 Nov 2012 
Работнечег
User avatar
Joined: 28 Aug 2007
Posts: 5606
Lоcаtion: г. Москва
Age: 29
Name: Дима
Image

Band: Roachclip
Album: The Return
Label: Karthago Records
Genre: Hard Rock
Country: Germany
Format: Flac + Log + Cue + Covers/MP3@320 kbps + Covers
Size: 521 Mb / 191 Mb

Line-Up:
Sven Bauer - Lead Vocals, Guitar, Bass
Oliver Noack - Keyboards, Hammond, Piano
Fritz Steger - Drums


Tracklist:
1. Pain is all I feel
2. Emotional Crime
3. Bethadina
4. Winter in Heaven
5. Sea of Flames
6. Yourself
7. Turning Wheel
8. Inside Out
9. Lucy
10. Wodan
11. You're Mine
12. Hel
13. The Old Man (Bonus)
14. Innocent Continent (Bonus)
15. Till Morning Light (Bonus)

LOG
Exact Audio Copy V0.99 prebeta 5 from 4. May 2009

EAC extraction logfile from 30. October 2012, 21:08

Roachclip / The Return

Used drive : PIONEER DVD-RW DVR-116D Adapter: 0 ID: 0

Read mode : Secure
Utilize accurate stream : Yes
Defeat audio cache : Yes
Make use of C2 pointers : No

Read offset correction : 96
Overread into Lead-In and Lead-Out : No
Fill up missing offset samples with silence : Yes
Delete leading and trailing silent blocks : No
Null samples used in CRC calculations : Yes
Used interface : Native Win32 interface for Win NT & 2000

Used output format : User Defined Encoder
Selected bitrate : 32 kBit/s
Quality : High
Add ID3 tag : No
Command line compressor : C:\Program Files\Exact Audio Copy\Flac\flac.exe
Additional command line options : -6 -V %s


TOC of the extracted CD

Track | Start | Length | Start sector | End sector
---------------------------------------------------------
1 | 0:00.00 | 4:02.04 | 0 | 18153
2 | 4:02.04 | 5:44.01 | 18154 | 43954
3 | 9:46.05 | 5:43.62 | 43955 | 69741
4 | 15:29.67 | 4:50.05 | 69742 | 91496
5 | 20:19.72 | 4:39.56 | 91497 | 112477
6 | 24:59.53 | 3:07.51 | 112478 | 126553
7 | 28:07.29 | 4:06.60 | 126554 | 145063
8 | 32:14.14 | 5:04.67 | 145064 | 167930
9 | 37:19.06 | 5:07.31 | 167931 | 190986
10 | 42:26.37 | 4:17.09 | 190987 | 210270
11 | 46:43.46 | 4:09.19 | 210271 | 228964
12 | 50:52.65 | 4:57.09 | 228965 | 251248
13 | 55:49.74 | 5:05.63 | 251249 | 274186
14 | 60:55.62 | 4:48.58 | 274187 | 295844
15 | 65:44.45 | 4:40.26 | 295845 | 316870
16 | 70:24.71 | 6:04.54 | 316871 | 344224


Range status and errors

Selected range

Filename D:\Музыка\Lossless\Roachclip - The Return (2009)\Roachclip - The Return.wav

Peak level 96.6 %
Range quality 100.0 %
Copy CRC 169F46CA
Copy OK

No errors occurred


AccurateRip summary

Track 1 not present in database
Track 2 not present in database
Track 3 not present in database
Track 4 not present in database
Track 5 not present in database
Track 6 not present in database
Track 7 not present in database
Track 8 not present in database
Track 9 not present in database
Track 10 not present in database
Track 11 not present in database
Track 12 not present in database
Track 13 not present in database
Track 14 not present in database
Track 15 not present in database
Track 16 not present in database

None of the tracks are present in the AccurateRip database

End of status report

CUE
REM GENRE "Hard Rock"
REM DATE 2009
REM DISCID E211ED10
REM COMMENT "ExactAudioCopy v0.99pb5"
PERFORMER "Roachclip"
TITLE "The Return"
FILE "Roachclip - The Return.flac" WAVE
TRACK 01 AUDIO
TITLE "Pain Is All I Feel"
PERFORMER "Roachclip"
INDEX 01 00:00:00
TRACK 02 AUDIO
TITLE "Emotional Crime"
PERFORMER "Roachclip"
INDEX 00 04:01:04
INDEX 01 04:02:04
TRACK 03 AUDIO
TITLE "Bethadina"
PERFORMER "Roachclip"
INDEX 00 09:45:06
INDEX 01 09:46:05
TRACK 04 AUDIO
TITLE "Winter In Heaven"
PERFORMER "Roachclip"
INDEX 00 15:28:67
INDEX 01 15:29:67
TRACK 05 AUDIO
TITLE "Sea Of Flames"
PERFORMER "Roachclip"
INDEX 00 20:18:72
INDEX 01 20:19:72
TRACK 06 AUDIO
TITLE "Yourself"
PERFORMER "Roachclip"
INDEX 00 24:58:54
INDEX 01 24:59:53
TRACK 07 AUDIO
TITLE "Turning Wheel"
PERFORMER "Roachclip"
INDEX 00 28:05:29
INDEX 01 28:07:29
TRACK 08 AUDIO
TITLE "Inside Out"
PERFORMER "Roachclip"
INDEX 00 32:13:13
INDEX 01 32:14:14
TRACK 09 AUDIO
TITLE "Lucy"
PERFORMER "Roachclip"
INDEX 00 37:18:06
INDEX 01 37:19:06
TRACK 10 AUDIO
TITLE "Wodan"
PERFORMER "Roachclip"
INDEX 01 42:26:37
TRACK 11 AUDIO
TITLE "You're Mine"
PERFORMER "Roachclip"
INDEX 00 46:41:46
INDEX 01 46:43:46
TRACK 12 AUDIO
TITLE "Hel"
PERFORMER "Roachclip"
INDEX 01 50:52:65
TRACK 13 AUDIO
TITLE "Prayer"
PERFORMER "Roachclip"
INDEX 00 55:48:74
INDEX 01 55:49:74
TRACK 14 AUDIO
TITLE "The Old Man"
PERFORMER "Roachclip"
INDEX 00 60:54:62
INDEX 01 60:55:62
TRACK 15 AUDIO
TITLE "Innocent Continent"
PERFORMER "Roachclip"
INDEX 01 65:44:45
TRACK 16 AUDIO
TITLE "Till Morning Light"
PERFORMER "Roachclip"
INDEX 01 70:24:71


MP3@320kbps
FLAC

Отличный, довольно спокойный альбом! За возможность ознакомления говорим спасибо Саше spryt777!
P.S. найти бы их винил 1990 года...


Top
 Profile E-mail  
 
 
PostPosted: 05 Nov 2012 
Я набрал 1000 сообщений!
Joined: 24 Oct 2009
Posts: 2123
Lоcаtion: Оренбург
Age: 55
Name: Юра
Спасибо! Дима. :true:

_________________
:dash: I am happy!


Top
 Profile E-mail  
 
 
PostPosted: 15 Jan 2015 
Rara avis
User avatar
Joined: 27 Jan 2009
Posts: 4720
Name: .
:thanx:


Top
 Profile E-mail  
 
Display posts from previous:  Sort by  
Post new topic Reply to topic  [ 3 posts ] 

All times are UTC + 3 hours


Who is online

Users browsing this forum: No registered users and 3 guests


You cannot post new topics in this forum
You cannot reply to topics in this forum
You cannot edit your posts in this forum
You cannot delete your posts in this forum
You cannot post attachments in this forum

Search for:
Яндекс.Метрика
Powered by phpBB © 2000, 2002, 2005, 2007 phpBB Group