\m/ 80's metal \m/

Информационно-аналитический форум "80 см пыли" (In Search We Trust) "У нас никто никуда не спешит"
Me For You - http://me-4u.com
It is currently 20 Aug 2019

All times are UTC + 3 hours

Spoiler
Chat - temporary registration for foreign users (please leave your application here)







Post new topic Reply to topic  [ 4 posts ] 
Author Message
 
PostPosted: 20 Oct 2012 
А может смените мне статус?..
User avatar
Joined: 22 Nov 2008
Posts: 971
Lоcаtion: Schelcovo,Russia
Age: 47
Name: Сергей
Image
Raw Silk - Silk Under The Skin (1990)
Setlist:
01.Second Advent
02.Journey Of No Return
03.Irene
04.Heroes Don't cry
05.Street Girl
06.Just Like A Dream
07.Broken Vows
08.Fever
George Florakis: Vocals
Apostolis Bakopoulos: Guitar
Mihalis Tsoukalas: Guitar
Yanis Plagianakos: Bass
Rory Christopoulos: Keys
Kostas Kyriakidis: Drums

Lossless
Mp3

"log"
Отчёт EAC об извлечении, выполненном 18. октября 2012, 22:20 для диска:
Raw Silk / Silk Under The Skin

Дисковод: HL-DT-STDVDRAM GT32N Adapter: 0 ID: 1
Режим чтения: Скоростной
Коррекция смещения при чтении: 0
Способность читать области Lead-in и Lead-out : Нет

Выходной формат: Внутренние WAV-операции
44.100 Гц; 16 бит; стерео

Другие параметры:
Заполнение пропущенных сэмплов тишиной : Да
Удаление блоков с тишиной в начале и конце : Нет
Установленный внешний ASPI-интерфейс


Характеристики диапазона извлечения и сообщения об ошибках
Выбранный диапазон
Имя файла C:\Users\Сергей\Music\V.A. - On The Edge Of Death (1990)\Raw Silk - Silk Under The Skin.wav

Пиковый уровень 99.8 %
CRC DF6B3C42
Копирование... OK

Ошибок не произошло

Конец отчёта

"cue"
REM GENRE "Hard Rock"
REM DATE 1990
REM DISCID 5A07C608
REM COMMENT "ExactAudioCopy v0.95b4"
PERFORMER "Raw Silk"
TITLE "Silk Under The Skin"
FILE "Raw Silk - Silk Under The Skin.wav" WAVE
TRACK 01 AUDIO
TITLE "1. Second Advent"
PERFORMER "Raw Silk"
INDEX 01 00:00:00
TRACK 02 AUDIO
TITLE "2. Journey of No Return"
PERFORMER "Raw Silk"
INDEX 00 03:45:44
INDEX 01 03:48:72
TRACK 03 AUDIO
TITLE "3. Irene"
PERFORMER "Raw Silk"
INDEX 01 07:38:12
TRACK 04 AUDIO
TITLE "4. Heroes Don't Cry"
PERFORMER "Raw Silk"
INDEX 00 11:24:18
INDEX 01 11:25:52
TRACK 05 AUDIO
TITLE "5. Street Girl"
PERFORMER "Raw Silk"
INDEX 00 16:16:65
INDEX 01 16:54:55
TRACK 06 AUDIO
TITLE "6. Just Like a Dream"
PERFORMER "Raw Silk"
INDEX 01 21:09:32
TRACK 07 AUDIO
TITLE "7. Broken Vows"
PERFORMER "Raw Silk"
INDEX 00 24:32:20
INDEX 01 25:35:55
TRACK 08 AUDIO
TITLE "8. Fever"
PERFORMER "Raw Silk"
INDEX 00 29:03:56
INDEX 01 29:03:57


Сканы есть.

phpBB [youtube]


Top
 Profile  
 
 
PostPosted: 20 Oct 2012 
Доктор энтомологии
User avatar
Joined: 22 Jan 2009
Posts: 9841
Lоcаtion: Даугавпилс
Age: 44
Name: Алексей
Серега, веришь в конец светы? :shok:


Top
 Profile  
 
 
PostPosted: 21 Oct 2012 
Прокъмитолист
User avatar
Joined: 12 Aug 2007
Posts: 6590
Lоcаtion: Санктъ-Петербуркъ
Age: 51
Name: Олекъ
спасибо, Серёг :thanx:

_________________
прокъметол - это музыко, от которово есть прок (ы)


Top
 Profile  
 
 
PostPosted: 24 Oct 2012 
Персональный статус
User avatar
Joined: 22 Oct 2011
Posts: 352
Lоcаtion: Moscow
Age: 60
Name: Серёжа
:thanx:


Top
 Profile E-mail  
 
Display posts from previous:  Sort by  
Post new topic Reply to topic  [ 4 posts ] 

All times are UTC + 3 hours


Who is online

Users browsing this forum: No registered users and 1 guest


You cannot post new topics in this forum
You cannot reply to topics in this forum
You cannot edit your posts in this forum
You cannot delete your posts in this forum
You cannot post attachments in this forum

Search for:
Яндекс.Метрика
Powered by phpBB © 2000, 2002, 2005, 2007 phpBB Group