\m/ 80's metal \m/

Информационно-аналитический форум "80 см пыли" (In Search We Trust) "У нас никто никуда не спешит"
Железнодорожная биржа - RailAgent
It is currently 19 Feb 2018

All times are UTC + 3 hours

Spoiler
Chat - temporary registration for foreign users (please leave your application here)







Post new topic Reply to topic  [ 10 posts ] 
Author Message
 
PostPosted: 06 Sep 2012 
Работнечег
User avatar
Joined: 28 Aug 2007
Posts: 5128
Lоcаtion: г. Москва
Age: 28
Name: Дима
Image

Band: Rash Panzer
Album: Wild, Raw & Live
Label: Self-released
Genre: Melodic Heavy Metal
Country: Switherland
Format: Flac + Log + Cue + Covers/ Mp3@320 + Covers
Size: 323 Mb/ 119 Mb

Line-Up:
J.Jay Guertchakoff - Vocals
Renato Dani - Guitar
Alain Bays - Bass (?)
Bernard Monney - Guitar (?)
Christophe "Popof" Richard - Drums (?)


Tracklist:
1. Do you really know? 04:02
2. Get down! 03:17
3. The same old Song 04:33
4. AC/DC 02:35
5. The lost and found 05:15
6. Saturday Night Blues 04:57
7. New York 03:06
8. Sleazy Lili 04:02
9. Tell me why , Freddy ? 04:08
10. Heavy Leaders 03:25
11. C`est la vie! 04:17
12. High Voltage 04:25

LOG
Exact Audio Copy V0.99 prebeta 5 from 4. May 2009

EAC extraction logfile from 5. September 2012, 11:43

Rash Panzer / Wild, Raw & LIve

Used drive : PIONEER DVD-RW DVR-116D Adapter: 0 ID: 0

Read mode : Secure
Utilize accurate stream : Yes
Defeat audio cache : Yes
Make use of C2 pointers : No

Read offset correction : 96
Overread into Lead-In and Lead-Out : No
Fill up missing offset samples with silence : Yes
Delete leading and trailing silent blocks : No
Null samples used in CRC calculations : Yes
Used interface : Native Win32 interface for Win NT & 2000

Used output format : User Defined Encoder
Selected bitrate : 32 kBit/s
Quality : High
Add ID3 tag : No
Command line compressor : C:\Program Files\Exact Audio Copy\Flac\flac.exe
Additional command line options : -6 -V %s


TOC of the extracted CD

Track | Start | Length | Start sector | End sector
---------------------------------------------------------
1 | 0:00.32 | 4:42.50 | 32 | 21231
2 | 4:43.07 | 3:20.60 | 21232 | 36291
3 | 8:03.67 | 4:35.53 | 36292 | 56969
4 | 12:39.45 | 2:30.50 | 56970 | 68269
5 | 15:10.20 | 5:18.00 | 68270 | 92119
6 | 20:28.20 | 5:04.62 | 92120 | 114981
7 | 25:33.07 | 3:08.10 | 114982 | 129091
8 | 28:41.17 | 4:09.65 | 129092 | 147831
9 | 32:51.07 | 4:15.48 | 147832 | 167004
10 | 37:06.55 | 3:27.30 | 167005 | 182559
11 | 40:34.10 | 4:24.05 | 182560 | 202364
12 | 44:58.15 | 4:38.07 | 202365 | 223221


Range status and errors

Selected range

Filename D:\Музыка\Lossless\Rash Panzer - Wild, Raw & Live (1992)\Rash Panzer - Wild, Raw & LIve.wav

Peak level 97.6 %
Range quality 99.9 %
Copy CRC A535E6EB
Copy OK

No errors occurred


AccurateRip summary

Track 1 not present in database
Track 2 not present in database
Track 3 not present in database
Track 4 not present in database
Track 5 not present in database
Track 6 not present in database
Track 7 not present in database
Track 8 not present in database
Track 9 not present in database
Track 10 not present in database
Track 11 not present in database
Track 12 not present in database

None of the tracks are present in the AccurateRip database

End of status report

CUE
REM GENRE "Heavy Metal"
REM DATE 1992
REM DISCID 970BA00C
REM COMMENT "ExactAudioCopy v0.99pb5"
PERFORMER "Rash Panzer"
TITLE "Wild, Raw & LIve"
FILE "Rash Panzer - Wild, Raw & LIve.flac" WAVE
TRACK 01 AUDIO
TITLE "Do You Really Know?"
PERFORMER "Rash Panzer"
INDEX 00 00:00:00
INDEX 01 00:00:32
TRACK 02 AUDIO
TITLE "Get Down!"
PERFORMER "Rash Panzer"
INDEX 01 04:43:07
TRACK 03 AUDIO
TITLE "The Same Old Song"
PERFORMER "Rash Panzer"
INDEX 01 08:03:67
TRACK 04 AUDIO
TITLE "AC/DC"
PERFORMER "Rash Panzer"
INDEX 01 12:39:45
TRACK 05 AUDIO
TITLE "The Lost And Found"
PERFORMER "Rash Panzer"
INDEX 01 15:10:20
TRACK 06 AUDIO
TITLE "Saturday Night Blues"
PERFORMER "Rash Panzer"
INDEX 01 20:28:20
TRACK 07 AUDIO
TITLE "New York"
PERFORMER "Rash Panzer"
INDEX 01 25:33:07
TRACK 08 AUDIO
TITLE "Sleazy Lili"
PERFORMER "Rash Panzer"
INDEX 01 28:41:17
TRACK 09 AUDIO
TITLE "Tell Me Why, Freddy?"
PERFORMER "Rash Panzer"
INDEX 01 32:51:07
TRACK 10 AUDIO
TITLE "Heavy Leaders"
PERFORMER "Rash Panzer"
INDEX 01 37:06:55
TRACK 11 AUDIO
TITLE "C'Est Le Vie!"
PERFORMER "Rash Panzer"
INDEX 01 40:34:10
TRACK 12 AUDIO
TITLE "High Voltage"
PERFORMER "Rash Panzer"
INDEX 01 44:58:15


Lossless
MP3@320

За предоставленный раритет говорим спасибо spryt777!


Top
 Profile E-mail  
 
 
PostPosted: 06 Sep 2012 
Доктор энтомологии
User avatar
Joined: 22 Jan 2009
Posts: 8808
Lоcаtion: Даугавпилс
Age: 42
Name: Алексей
Cпасибке за мптриху :thanx:


Top
 Profile  
 
 
PostPosted: 06 Sep 2012 
Прокъмитолист
User avatar
Joined: 12 Aug 2007
Posts: 6290
Lоcаtion: Санктъ-Петербуркъ
Age: 50
Name: Олекъ
заберу, например :crazy: Саня, Димка, спасибо! :thanx:

_________________
прокъметол - это музыко, от которово есть прок (ы)


Top
 Profile  
 
 
PostPosted: 11 Sep 2012 
труъ антисионист
User avatar
Joined: 01 Aug 2007
Posts: 4541
Lоcаtion: Откуда и большинство из нас
Age: 37
Name: Дядя Вова
Например - чудо клип.
phpBB [youtube]

_________________
Image
Image


Top
 Profile  
 
 
PostPosted: 11 Sep 2012 
Генеральный thrasher
User avatar
Joined: 03 Oct 2008
Posts: 3293
Lоcаtion: Ханты-Мансийский АО
Age: 43
Name: Сергей
Послушать что-ли...Спасибо,Дим!


Top
 Profile  
 
 
PostPosted: 12 Sep 2012 
хард н хэвщик (support team)
User avatar
Joined: 02 Jun 2008
Posts: 16879
Lоcаtion: Н.Новгород
Age: 30
Name: Артем
:true: спасибо!


Top
 Profile  
 
 
PostPosted: 14 Sep 2012 
Труъ
Joined: 23 Sep 2009
Posts: 197
Name: henk
Thanks a lot for the 320 kbps version. This band is a real discovery.


Top
 Profile E-mail  
 
 
PostPosted: 20 Sep 2012 
Персональный статус
User avatar
Joined: 22 Oct 2011
Posts: 352
Lоcаtion: Moscow
Age: 59
Name: Серёжа
:thanx:


Top
 Profile E-mail  
 
 
PostPosted: 21 Sep 2012 
Хиппей (support team)
User avatar
Joined: 30 Jul 2007
Posts: 100061
Lоcаtion: Киев (Kyiv, UA)
Age: 44
Name: Andrey
:thanx:

_________________


Top
 Profile E-mail  
 
 
PostPosted: 01 Oct 2012 
Хиппей (support team)
User avatar
Joined: 30 Jul 2007
Posts: 100061
Lоcаtion: Киев (Kyiv, UA)
Age: 44
Name: Andrey
К сожалению, альбом оказался заловым вариантом - сборником из собственных песен, разбавленным каверами на известные хиты. Исполнено, задорно, местами, но... очень уж стандартно и прямолинейно-ракиндролльно.
А так это обычный хард-рок :dance:

4/10

Спасибо за знакомство с музыкой группы :thanx:

mirror: MultiUp l Narod

_________________


Top
 Profile E-mail  
 
Display posts from previous:  Sort by  
Post new topic Reply to topic  [ 10 posts ] 

All times are UTC + 3 hours


Who is online

Users browsing this forum: No registered users and 2 guests


You cannot post new topics in this forum
You cannot reply to topics in this forum
You cannot edit your posts in this forum
You cannot delete your posts in this forum
You cannot post attachments in this forum

Search for:
Яндекс.Метрика
Powered by phpBB © 2000, 2002, 2005, 2007 phpBB Group