\m/ 80's metal \m/

Информационно-аналитический форум "80 см пыли" (In Search We Trust) "У нас никто никуда не спешит"
Me For You - http://me-4u.com
It is currently 22 Sep 2018

All times are UTC + 3 hours

Spoiler
Chat - temporary registration for foreign users (please leave your application here)







Post new topic Reply to topic  [ 23 posts ]  Go to page 1, 2  Next
Author Message
 
PostPosted: 25 Jul 2012 
Я набрал 1000 сообщений!
Joined: 24 Oct 2009
Posts: 2031
Lоcаtion: Оренбург
Age: 55
Name: Юра
Image

Year: 1990
Genre: Heavy Metal
Country: Germany
Format: FLAC (image+cue)+Log+Covers
Size: 312Mb (5% recovery)

Band:

Matthias "Mäfju" Kraf: Bass, Vocals (backing)
Daniel Zimmermann: Guitars
Michael Wengerter : Drums
Andreas Maus: Guitars
Thomas Bennecke: Vocals

Tracks:

1. You Can't Stop Me
2. Eyes of a Living
3. Windheim
4. Call of Destiny
5. Prelude No. 1
6. Rising from the Sea
7. Set Me Free
8. Child of Mistery
9. Nighthouse

LOG
Exact Audio Copy V0.99 prebeta 5 from 4. May 2009

EAC extraction logfile from 17. March 2012, 19:13

Reaper / Beyond All The Time

Used drive : Optiarc DVD+-RW AD-7717H Adapter: 0 ID: 2

Read mode : Secure
Utilize accurate stream : Yes
Defeat audio cache : Yes
Make use of C2 pointers : No

Read offset correction : 48
Overread into Lead-In and Lead-Out : Yes
Fill up missing offset samples with silence : Yes
Delete leading and trailing silent blocks : No
Null samples used in CRC calculations : No
Used interface : Native Win32 interface for Win NT & 2000

Used output format : Internal WAV Routines
Sample format : 44.100 Hz; 16 Bit; Stereo


TOC of the extracted CD

Track | Start | Length | Start sector | End sector
---------------------------------------------------------
1 | 0:00.00 | 3:10.00 | 0 | 14249
2 | 3:10.00 | 5:06.00 | 14250 | 37199
3 | 8:16.00 | 6:26.00 | 37200 | 66149
4 | 14:42.00 | 3:37.00 | 66150 | 82424
5 | 18:19.00 | 1:07.02 | 82425 | 87451
6 | 19:26.02 | 5:46.73 | 87452 | 113474
7 | 25:13.00 | 4:31.00 | 113475 | 133799
8 | 29:44.00 | 5:23.00 | 133800 | 158024
9 | 35:07.00 | 4:18.37 | 158025 | 177411


Range status and errors

Selected range

Filename D:\MUSIC\на ФЛЭШКУ\1FLAC\готовые\Reaper - Beyond All The Time (1990)\Reaper - Beyond All The Time.wav

Suspicious position 0:39:25

Peak level 100.0 %
Range quality 99.9 %
Copy CRC D4A516EC
Copy finished

There were errors


AccurateRip summary

Track 1 not present in database
Track 2 not present in database
Track 3 not present in database
Track 4 not present in database
Track 5 not present in database
Track 6 not present in database
Track 7 not present in database
Track 8 not present in database
Track 9 not present in database

None of the tracks are present in the AccurateRip database

End of status report


CUE
REM GENRE "Heavy Metal"
REM DATE 1990
REM DISCID 78093D09
REM COMMENT "ExactAudioCopy v0.99pb5"
PERFORMER "Reaper"
TITLE "Beyond All The Time"
FILE "Reaper - Beyond All The Time.flac" WAVE
TRACK 01 AUDIO
TITLE "You Can Not Stop Me"
PERFORMER "Reaper"
INDEX 01 00:00:00
TRACK 02 AUDIO
TITLE "Eyes Of A Living"
PERFORMER "Reaper"
INDEX 01 03:10:00
TRACK 03 AUDIO
TITLE "Windheim"
PERFORMER "Reaper"
INDEX 01 08:16:00
TRACK 04 AUDIO
TITLE "Call Of Destiny"
PERFORMER "Reaper"
INDEX 01 14:42:00
TRACK 05 AUDIO
TITLE "Prelude No.1"
PERFORMER "Reaper"
INDEX 01 18:19:00
TRACK 06 AUDIO
TITLE "Rising From The Sea"
PERFORMER "Reaper"
INDEX 01 19:26:02
TRACK 07 AUDIO
TITLE "Set Me Free"
PERFORMER "Reaper"
INDEX 01 25:13:00
TRACK 08 AUDIO
TITLE "Child Of Mistery"
PERFORMER "Reaper"
INDEX 01 29:44:00
TRACK 09 AUDIO
TITLE "Nighthouse"
PERFORMER "Reaper"
INDEX 01 35:07:00


Narod

Опять Спасибо! Олегу (rockempire)

_________________
:dash: I am happy!


Top
 Profile E-mail  
 
 
PostPosted: 25 Jul 2012 
хард н хэвщик (support team)
User avatar
Joined: 02 Jun 2008
Posts: 16880
Lоcаtion: Н.Новгород
Age: 31
Name: Артем
Если я не ошибаюсь, у нас на форуме уже пробегал лось


Top
 Profile  
 
 
PostPosted: 25 Jul 2012 
Я набрал 1000 сообщений!
Joined: 24 Oct 2009
Posts: 2031
Lоcаtion: Оренбург
Age: 55
Name: Юра
Я смотрел вроде нету... Даже "Поиском" пользовался - не упрекнёте! :nunu:

_________________
:dash: I am happy!


Last edited by uriyy on 25 Jul 2012, edited 2 times in total.

Top
 Profile E-mail  
 
 
PostPosted: 25 Jul 2012 
хард н хэвщик (support team)
User avatar
Joined: 02 Jun 2008
Posts: 16880
Lоcаtion: Н.Новгород
Age: 31
Name: Артем
пардон, то были мп3 viewtopic.php?f=150&t=1941&hilit=Reaper


Top
 Profile  
 
 
PostPosted: 25 Jul 2012 
А может смените мне статус?..
User avatar
Joined: 24 Dec 2008
Posts: 615
Age: 44
Name: Дмитрий
Спасибо! :true:


Top
 Profile  
 
 
PostPosted: 27 Jul 2012 
Хиппей (support team)
User avatar
Joined: 30 Jul 2007
Posts: 106427
Lоcаtion: Киев (Kyiv, UA)
Age: 45
Name: Andrey
Спасибо всем за л0ся :thanx:

И все же от Вадима лось был.


Мдя, ну и тем у нас многовато чего-то по Риперу... viewtopic.php?f=150&t=688 :fingal:

_________________


Top
 Profile E-mail  
 
 
PostPosted: 28 Jul 2012 
Я набрал 1000 сообщений!
Joined: 24 Oct 2009
Posts: 2031
Lоcаtion: Оренбург
Age: 55
Name: Юра
Quote:
http://80s.takemetal.com/viewtopic.php?f=150&t=688 :fingal:

Эт к чему....
Ребят 2001 нужен кому?

_________________
:dash: I am happy!


Top
 Profile E-mail  
 
 
PostPosted: 28 Jul 2012 
А может смените мне статус?..
User avatar
Joined: 24 Dec 2008
Posts: 615
Age: 44
Name: Дмитрий
uriyy wrote:
Quote:
http://80s.takemetal.com/viewtopic.php?f=150&t=688 :fingal:

Эт к чему....
Ребят 2001 нужен кому?



Это который "Cardinal Sins"? Нужен!
:true:


Top
 Profile  
 
 
PostPosted: 28 Jul 2012 
Хиппей (support team)
User avatar
Joined: 30 Jul 2007
Posts: 106427
Lоcаtion: Киев (Kyiv, UA)
Age: 45
Name: Andrey
uriyy wrote:
Quote:
http://80s.takemetal.com/viewtopic.php?f=150&t=688 :fingal:

Эт к чему....

Хм, ошибся темой.
Вот так тогда viewtopic.php?f=150&t=1921 и так еще viewtopic.php?f=150&t=861

Позже темки объединю.

_________________


Top
 Profile E-mail  
 
 
PostPosted: 28 Jul 2012 
Я набрал 1000 сообщений!
Joined: 24 Oct 2009
Posts: 2031
Lоcаtion: Оренбург
Age: 55
Name: Юра
Блин... извиняюсь The Years Within 1992 :dash:

_________________
:dash: I am happy!


Top
 Profile E-mail  
 
 
PostPosted: 24 Jul 2014 
Partisanen - nicht kapitulieren!!
User avatar
Joined: 25 Dec 2011
Posts: 6740
Warnings: 1
Lоcаtion: партизанские леса
Age: 46
Name: Владимир
а сопсна, возвращаясь к Cardinal Sins... есть у кого-нить? :oops:

_________________
One more beer and Heavy Metal and I'm just fine!
старовер, куле... слово "блин" - до сих пор через Ъ говорю


Top
 Profile E-mail  
 
 
PostPosted: 25 Jul 2014 
Анатолий
User avatar
Joined: 18 Oct 2008
Posts: 3118
Lоcаtion: Армавир
Age: 41
Name: Анатолий
Коллеги, может кто-нибудь перезалить?


Top
 Profile E-mail  
 
 
PostPosted: 25 Jul 2014 
Partisanen - nicht kapitulieren!!
User avatar
Joined: 25 Dec 2011
Posts: 6740
Warnings: 1
Lоcаtion: партизанские леса
Age: 46
Name: Владимир
Privateer
сегодня чуть попозже...

_________________
One more beer and Heavy Metal and I'm just fine!
старовер, куле... слово "блин" - до сих пор через Ъ говорю


Top
 Profile E-mail  
 
 
PostPosted: 25 Jul 2014 
Хиппей (support team)
User avatar
Joined: 30 Jul 2007
Posts: 106427
Lоcаtion: Киев (Kyiv, UA)
Age: 45
Name: Andrey
А Толя до вчерашнего дня никак не мог скачать лосика? :lloo:

_________________


Top
 Profile E-mail  
 
 
PostPosted: 25 Jul 2014 
Partisanen - nicht kapitulieren!!
User avatar
Joined: 25 Dec 2011
Posts: 6740
Warnings: 1
Lоcаtion: партизанские леса
Age: 46
Name: Владимир
Reaper 1990 - Beyond All Time
Image
Genre : Heavy Metal
Site : http://www.reaper.de/
Country : Germany
Year : 1990
Label : Metal Enterprises
Tracks : 9
Playtime : 00:39:26
Size : 285.8 MB
Codec : APE/image+cue+log/lossless

Tracklist :
01. You Can Not Stop Me (03:10)
02. Eyes Of A Living (05:06)
03. Windheim (06:26)
04. Call Of Destiny (03:37)
05. Prelude No.1 (01:07)
06. Rising From The Sea (05:47)
07. Set Me Free (04:31)
08. Child Of Mistery (05:23)
09. Nighthouse (04:18)

EAC log | +
Code:
Exact Audio Copy V1.0 beta 3 from 29. August 2011

Отчёт EAC об извлечении, выполненном 19. марта 2012, 20:12

REAPER / Beyond All The Time

Дисковод: SlimtypeDVD A  DS8A2S   Adapter: 1  ID: 0

Режим чтения                 : Достоверность
Использование точного потока : Да
Отключение кэша аудио        : Да
Использование указателей C2  : Нет

Коррекция смещения при чтении                     : 6
Способность читать области Lead-in и Lead-out     : Нет
Заполнение пропущенных сэмплов тишиной            : Да
Удаление блоков с тишиной в начале и конце        : Нет
При вычислениях CRC использовались нулевые сэмплы : Да
Интерфейс                                         : Встроенный Win32-интерфейс для Win NT/2000

Выходной формат : Внутренние WAV-операции
Формат сэмплов  : 44.100 Гц; 16 бит; стерео


TOC извлечённого CD

     Трек |   Старт  | Длительность | Начальный сектор | Конечный сектор
    ---------------------------------------------------------------------
       1  |  0:00.00 |    3:10.00   |           0      |      14249     
       2  |  3:10.00 |    5:06.00   |       14250      |      37199     
       3  |  8:16.00 |    6:26.00   |       37200      |      66149     
       4  | 14:42.00 |    3:37.00   |       66150      |      82424     
       5  | 18:19.00 |    1:07.02   |       82425      |      87451     
       6  | 19:26.02 |    5:46.73   |       87452      |     113474     
       7  | 25:13.00 |    4:31.00   |      113475      |     133799     
       8  | 29:44.00 |    5:23.00   |      133800      |     158024     
       9  | 35:07.00 |    4:18.37   |      158025      |     177411     


Характеристики диапазона извлечения и сообщения об ошибках

Выбранный диапазон

     Имя файла D:\lossless\REAPER - Beyond All The Time.wav

     Пиковый уровень 100.0 %
     Скорость извлечения 4.3 X
     Качество диапазона 99.9 %
     CRC копии 1B34854E
     Копирование... OK

Ошибок не произошло

Конец отчёта

CUE sheet | +
Code:
REM GENRE "Heavy Metal"
REM DATE 1990
REM DISCID 78093D09
REM COMMENT "ExactAudioCopy v1.0b3"
PERFORMER "REAPER"
TITLE "Beyond All The Time"
FILE "REAPER - Beyond All The Time.ape" WAVE
  TRACK 01 AUDIO
    TITLE "You Can Not Stop Me"
    PERFORMER "REAPER"
    INDEX 01 00:00:00
  TRACK 02 AUDIO
    TITLE "Eyes Of A Living"
    PERFORMER "REAPER"
    INDEX 00 03:07:50
    INDEX 01 03:10:00
  TRACK 03 AUDIO
    TITLE "Windheim"
    PERFORMER "REAPER"
    INDEX 00 08:13:55
    INDEX 01 08:16:00
  TRACK 04 AUDIO
    TITLE "Call Of Destiny"
    PERFORMER "REAPER"
    INDEX 00 14:39:67
    INDEX 01 14:42:00
  TRACK 05 AUDIO
    TITLE "Prelude No.1"
    PERFORMER "REAPER"
    INDEX 00 18:17:40
    INDEX 01 18:19:00
  TRACK 06 AUDIO
    TITLE "Rising From The Sea"
    PERFORMER "REAPER"
    INDEX 00 19:26:00
    INDEX 01 19:26:02
  TRACK 07 AUDIO
    TITLE "Set Me Free"
    PERFORMER "REAPER"
    INDEX 00 25:11:32
    INDEX 01 25:13:00
  TRACK 08 AUDIO
    TITLE "Child Of Mistery"
    PERFORMER "REAPER"
    INDEX 00 29:42:07
    INDEX 01 29:44:00
  TRACK 09 AUDIO
    TITLE "Nighthouse"
    PERFORMER "REAPER"
    INDEX 00 35:05:32
    INDEX 01 35:07:00


Image Image

_________________
One more beer and Heavy Metal and I'm just fine!
старовер, куле... слово "блин" - до сих пор через Ъ говорю


Last edited by 32warlord1 on 26 Jul 2014, edited 1 time in total.

Top
 Profile E-mail  
 
 
PostPosted: 25 Jul 2014 
Partisanen - nicht kapitulieren!!
User avatar
Joined: 25 Dec 2011
Posts: 6740
Warnings: 1
Lоcаtion: партизанские леса
Age: 46
Name: Владимир
92 и 09 добалять?

_________________
One more beer and Heavy Metal and I'm just fine!
старовер, куле... слово "блин" - до сих пор через Ъ говорю


Top
 Profile E-mail  
 
 
PostPosted: 26 Jul 2014 
Хиппей (support team)
User avatar
Joined: 30 Jul 2007
Posts: 106427
Lоcаtion: Киев (Kyiv, UA)
Age: 45
Name: Andrey
Ага, спасиба! :thanx: :true:

_________________


Top
 Profile E-mail  
 
 
PostPosted: 26 Jul 2014 
Partisanen - nicht kapitulieren!!
User avatar
Joined: 25 Dec 2011
Posts: 6740
Warnings: 1
Lоcаtion: партизанские леса
Age: 46
Name: Владимир
Reaper 1992 - The Years Within
Image
Genre : Heavy Metal
Site : http://www.reaper.de/
Country : Germany
Year : 1992
Label : Mausoleum Records
Tracks : 9
Playtime : 00:48:58
Size : 341.3 MB
Codec : FLAC/image+cue+log/lossless/scans

Tracklist :
01. Pyromaniac (05:47)
02. Seven Seas (06:30)
03. The Years Within (02:45)
04. Voices From The Sky (05:30)
05. Shelter From The Storm (06:51)
06. Lionheart (05:23)
07. Lucifer's Rising (03:33)
08. Purgatory (06:04)
09. Witchhunt (06:32)

EAC log
Code:
Exact Audio Copy V0.99 prebeta 5 from 4. May 2009

EAC extraction logfile from 21. September 2011, 14:13

Reaper / The Years Within

Used drive  : PIONEER DVD-RW  DVR-106D   Adapter: 1  ID: 0

Read mode               : Secure
Utilize accurate stream : Yes
Defeat audio cache      : Yes
Make use of C2 pointers : No

Read offset correction                      : 48
Overread into Lead-In and Lead-Out          : No
Fill up missing offset samples with silence : Yes
Delete leading and trailing silent blocks   : No
Null samples used in CRC calculations       : Yes
Used interface                              : Installed external ASPI interface

Used output format              : User Defined Encoder
Selected bitrate                : 32 kBit/s
Quality                         : High
Add ID3 tag                     : No
Command line compressor         : C:\Program Files\Exact Audio Copy\Flac\flac.exe
Additional command line options : -6 -V %s


TOC of the extracted CD

     Track |   Start  |  Length  | Start sector | End sector
    ---------------------------------------------------------
        1  |  0:00.00 |  5:48.50 |         0    |    26149   
        2  |  5:48.50 |  6:30.37 |     26150    |    55436   
        3  | 12:19.12 |  2:43.50 |     55437    |    67711   
        4  | 15:02.62 |  5:32.25 |     67712    |    92636   
        5  | 20:35.12 |  6:51.63 |     92637    |   123524   
        6  | 27:27.00 |  5:23.37 |    123525    |   147786   
        7  | 32:50.37 |  3:33.13 |    147787    |   163774   
        8  | 36:23.50 |  6:04.00 |    163775    |   191074   
        9  | 42:27.50 |  6:30.42 |    191075    |   220366   


Range status and errors

Selected range

     Filename M:\metalmadness\Reaper - The Years Within.wav

     Peak level 99.8 %
     Range quality 100.0 %
     Copy CRC F386ED9A
     Copy OK

No errors occurred


AccurateRip summary

Track  1  not present in database
Track  2  not present in database
Track  3  not present in database
Track  4  not present in database
Track  5  not present in database
Track  6  not present in database
Track  7  not present in database
Track  8  not present in database
Track  9  not present in database

None of the tracks are present in the AccurateRip database

End of status report

CUE sheet | +
Code:
REM GENRE "Heavy Metal"
REM DATE 1992
REM DISCID 7B0B7A09
REM COMMENT "ExactAudioCopy v0.99pb5"
PERFORMER "Reaper"
TITLE "The Years Within"
FILE "Reaper - The Years Within.flac" WAVE
  TRACK 01 AUDIO
    TITLE "Pyromaniac"
    PERFORMER "Reaper"
    INDEX 01 00:00:00
  TRACK 02 AUDIO
    TITLE "Seven Seas"
    PERFORMER "Reaper"
    INDEX 00 05:46:72
    INDEX 01 05:48:50
  TRACK 03 AUDIO
    TITLE "The Years Within"
    PERFORMER "Reaper"
    INDEX 00 12:17:27
    INDEX 01 12:19:12
  TRACK 04 AUDIO
    TITLE "Voices From The Sky"
    PERFORMER "Reaper"
    INDEX 01 15:02:62
  TRACK 05 AUDIO
    TITLE "Shelter From The Storm"
    PERFORMER "Reaper"
    INDEX 00 20:33:35
    INDEX 01 20:35:12
  TRACK 06 AUDIO
    TITLE "Lionheart"
    PERFORMER "Reaper"
    INDEX 00 27:25:20
    INDEX 01 27:27:00
  TRACK 07 AUDIO
    TITLE "Lucifer's Rising"
    PERFORMER "Reaper"
    INDEX 00 32:48:52
    INDEX 01 32:50:37
  TRACK 08 AUDIO
    TITLE "Purgatory"
    PERFORMER "Reaper"
    INDEX 00 36:21:67
    INDEX 01 36:23:50
  TRACK 09 AUDIO
    TITLE "Witchhunt"
    PERFORMER "Reaper"
    INDEX 00 42:25:70
    INDEX 01 42:27:50


Image Image

_________________
One more beer and Heavy Metal and I'm just fine!
старовер, куле... слово "блин" - до сих пор через Ъ говорю


Top
 Profile E-mail  
 
 
PostPosted: 26 Jul 2014 
Partisanen - nicht kapitulieren!!
User avatar
Joined: 25 Dec 2011
Posts: 6740
Warnings: 1
Lоcаtion: партизанские леса
Age: 46
Name: Владимир
Reaper 2009 - Gardens Of Seth
Image
Genre : Heavy Metal
Site : http://www.reaper.de/
Country : Germany
Year : 2009
Label : STF Records
Tracks : 10
Playtime : 00:44:44
Size : 358.8 MB
Codec : WavPack/image+cue+log/lossless/scans

Tracklist :
01. Into The Gardens Of Seth (01:02)
02. The Age Of Hunger (04:31)
03. Ten Thousand Nightmares (04:26)
04. Super Mystique (06:12)
05. Dark Beyond Black (04:27)
06. Leviathan (06:15)
07. Revolution (05:19)
08. Al Andaluz (03:22)
09. Der Erlkonig (04:06)
10. Light Of Anger (04:59)

EAC log | +
Code:
Exact Audio Copy V0.99 prebeta 5 from 4. May 2009

EAC extraction logfile from 2. June 2011, 0:38

Reaper / Gardens Of Seth

Used drive  : Optiarc DVD RW AD-7260S   Adapter: 3  ID: 0

Read mode               : Secure
Utilize accurate stream : Yes
Defeat audio cache      : Yes
Make use of C2 pointers : No

Read offset correction                      : 48
Overread into Lead-In and Lead-Out          : No
Fill up missing offset samples with silence : Yes
Delete leading and trailing silent blocks   : No
Null samples used in CRC calculations       : Yes
Used interface                              : Installed external ASPI interface

Used output format              : User Defined Encoder
Selected bitrate                : 1024 kBit/s
Quality                         : High
Add ID3 tag                     : No
Command line compressor         : D:\Program Files\Exact Audio Copy\WavPack\wavpack.exe
Additional command line options : -hhx6 -w "Artist=%a" -w "Album=%g" -w "Year=%y" -w "Genre=%m" -w "Cuesheet=@*.cue" %s %d


TOC of the extracted CD

     Track |   Start  |  Length  | Start sector | End sector
    ---------------------------------------------------------
        1  |  0:00.00 |  1:02.56 |         0    |     4705   
        2  |  1:02.56 |  4:32.61 |      4706    |    25166   
        3  |  5:35.42 |  4:26.53 |     25167    |    45169   
        4  | 10:02.20 |  6:12.65 |     45170    |    73134   
        5  | 16:15.10 |  4:27.41 |     73135    |    93200   
        6  | 20:42.51 |  6:15.22 |     93201    |   121347   
        7  | 26:57.73 |  5:19.17 |    121348    |   145289   
        8  | 32:17.15 |  3:22.49 |    145290    |   160488   
        9  | 35:39.64 |  4:06.00 |    160489    |   178938   
       10  | 39:45.64 |  4:58.09 |    178939    |   201297   


Range status and errors

Selected range

     Filename H:\REAPER [2009] [CD] Gardens Of Seth [EAC-WV]\Reaper - Gardens Of Seth.wav

     Peak level 96.6 %
     Range quality 100.0 %
     Test CRC EF527F64
     Copy CRC EF527F64
     Copy OK

No errors occurred


AccurateRip summary

Track  1  not present in database
Track  2  not present in database
Track  3  not present in database
Track  4  not present in database
Track  5  not present in database
Track  6  not present in database
Track  7  not present in database
Track  8  not present in database
Track  9  not present in database
Track 10  not present in database

None of the tracks are present in the AccurateRip database

End of status report

CUE sheet | +
Code:
REM GENRE "Heavy Metal"
REM DATE 2009
REM DISCID 880A7B0A
REM COMMENT "ExactAudioCopy v0.99pb5"
PERFORMER "Reaper"
TITLE "Gardens Of Seth"
FILE "Reaper - Gardens Of Seth.wv" WAVE
  TRACK 01 AUDIO
    TITLE "Into The Gardens Of Seth"
    PERFORMER "Reaper"
    FLAGS DCP
    INDEX 01 00:00:00
  TRACK 02 AUDIO
    TITLE "The Age Of Hunger"
    PERFORMER "Reaper"
    FLAGS DCP
    INDEX 01 01:02:56
  TRACK 03 AUDIO
    TITLE "Ten Thousand Nightmares"
    PERFORMER "Reaper"
    FLAGS DCP
    INDEX 00 05:34:42
    INDEX 01 05:35:42
  TRACK 04 AUDIO
    TITLE "Super Mystique"
    PERFORMER "Reaper"
    FLAGS DCP
    INDEX 00 10:01:20
    INDEX 01 10:02:20
  TRACK 05 AUDIO
    TITLE "Dark Beyond Black"
    PERFORMER "Reaper"
    FLAGS DCP
    INDEX 00 16:14:10
    INDEX 01 16:15:10
  TRACK 06 AUDIO
    TITLE "Leviathan"
    PERFORMER "Reaper"
    FLAGS DCP
    INDEX 00 20:41:51
    INDEX 01 20:42:51
  TRACK 07 AUDIO
    TITLE "Revolution"
    PERFORMER "Reaper"
    FLAGS DCP
    INDEX 00 26:56:73
    INDEX 01 26:57:73
  TRACK 08 AUDIO
    TITLE "Al Andaluz"
    PERFORMER "Reaper"
    FLAGS DCP
    INDEX 00 32:16:15
    INDEX 01 32:17:15
  TRACK 09 AUDIO
    TITLE "Der Erlkonig"
    PERFORMER "Reaper"
    FLAGS DCP
    INDEX 00 35:38:64
    INDEX 01 35:39:64
  TRACK 10 AUDIO
    TITLE "Light Of Anger"
    PERFORMER "Reaper"
    FLAGS DCP
    INDEX 00 39:44:64
    INDEX 01 39:45:64


Image Image

_________________
One more beer and Heavy Metal and I'm just fine!
старовер, куле... слово "блин" - до сих пор через Ъ говорю


Top
 Profile E-mail  
 
 
PostPosted: 26 Jul 2014 
Partisanen - nicht kapitulieren!!
User avatar
Joined: 25 Dec 2011
Posts: 6740
Warnings: 1
Lоcаtion: партизанские леса
Age: 46
Name: Владимир
добавил ишшо 2 албума и залил на Я.диск... темку наверное переименоватьь надо :vic:

_________________
One more beer and Heavy Metal and I'm just fine!
старовер, куле... слово "блин" - до сих пор через Ъ говорю


Top
 Profile E-mail  
 
Display posts from previous:  Sort by  
Post new topic Reply to topic  [ 23 posts ]  Go to page 1, 2  Next

All times are UTC + 3 hours


Who is online

Users browsing this forum: No registered users and 1 guest


You cannot post new topics in this forum
You cannot reply to topics in this forum
You cannot edit your posts in this forum
You cannot delete your posts in this forum
You cannot post attachments in this forum

Search for:
Яндекс.Метрика
Powered by phpBB © 2000, 2002, 2005, 2007 phpBB Group