\m/ 80's metal \m/

Информационно-аналитический форум "80 см пыли" (In Search We Trust) "У нас никто никуда не спешит"
Железнодорожная биржа - RailAgent
It is currently 20 Feb 2018

All times are UTC + 3 hours

Spoiler
Chat - temporary registration for foreign users (please leave your application here)







Post new topic Reply to topic  [ 3 posts ] 
Author Message
 
PostPosted: 31 May 2012 
А может смените мне статус?..
User avatar
Joined: 22 Nov 2008
Posts: 961
Lоcаtion: Schelcovo,Russia
Age: 46
Name: Сергей
Image
Rhett Forrester - Gone With the Wind
First Version released in France 1984, US-Version released 1986 on Shattered Rec., 2001 Re-Release at Metal Mayhem Music.
1. Gone With the Wind
2. Cranky Boy
3. The Last Thing I Do
4. Assume The Position
5. Voyage To Nowhere
6. Shake the Shadow
7. Boys Wanna Fight
8. Movin' in for the Kill
9. Live With Me (Cover Rolling Stones)
Lossless
Mp3
log
EAC extraction logfile from 30. May 2012, 20:32 for CD
Rhett Forrester / Gone With The Wind

Used drive : HL-DT-STDVDRAM GT32N Adapter: 0 ID: 1
Read mode : Secure with NO C2, accurate stream, disable cache
Read offset correction : 667
Overread into Lead-In and Lead-Out : No

Used output format : Internal WAV Routines
44.100 Hz; 16 Bit; Stereo

Other options :
Fill up missing offset samples with silence : Yes
Delete leading and trailing silent blocks : No
Installed external ASPI interface


Range status and errors
Selected range
Filename C:\Users\Сергей\Music\Rhett Forrester - Gone With The Wind.wav

Peak level 97.2 %
Range quality 100.0 %
CRC D0380ECE
Copy OK

No errors occured

End of status report

cue
REM GENRE "Hard Rock"
REM DISCID 6D092509
REM COMMENT "ExactAudioCopy v0.95b4"
PERFORMER "Rhett Forrester"
TITLE "Gone With The Wind"
FILE "Rhett Forrester - Gone With The Wind.wav" WAVE
TRACK 01 AUDIO
TITLE "gone with the wind"
PERFORMER "Rhett Forrester"
INDEX 01 00:00:00
TRACK 02 AUDIO
TITLE "cranky boy"
PERFORMER "Rhett Forrester"
INDEX 01 04:41:22
TRACK 03 AUDIO
TITLE "the last thing I do"
PERFORMER "Rhett Forrester"
INDEX 01 08:58:47
TRACK 04 AUDIO
TITLE "assume the position"
PERFORMER "Rhett Forrester"
INDEX 01 13:44:70
TRACK 05 AUDIO
TITLE "voyage to nowhere"
PERFORMER "Rhett Forrester"
INDEX 01 18:37:28
TRACK 06 AUDIO
TITLE "shake the shadow"
PERFORMER "Rhett Forrester"
INDEX 01 23:47:05
TRACK 07 AUDIO
TITLE "boys wanna fight"
PERFORMER "Rhett Forrester"
INDEX 01 27:04:68
TRACK 08 AUDIO
TITLE "movin' in for the kill"
PERFORMER "Rhett Forrester"
INDEX 01 31:08:16
TRACK 09 AUDIO
TITLE "live with me"
PERFORMER "Rhett Forrester"
INDEX 01 34:38:51

spectrum
Image


phpBB [youtube]


[youtube]1OYhkk5-7jM&feature=related[/youtube]


Top
 Profile  
 
 
PostPosted: 01 Jun 2012 
Генеральный thrasher
User avatar
Joined: 03 Oct 2008
Posts: 3293
Lоcаtion: Ханты-Мансийский АО
Age: 43
Name: Сергей
:thanx: :losik:


Top
 Profile  
 
 
PostPosted: 02 Jun 2012 
Хиппей (support team)
User avatar
Joined: 30 Jul 2007
Posts: 100101
Lоcаtion: Киев (Kyiv, UA)
Age: 44
Name: Andrey
:thanx:

mirror: MultiUp l Narod

_________________


Top
 Profile E-mail  
 
Display posts from previous:  Sort by  
Post new topic Reply to topic  [ 3 posts ] 

All times are UTC + 3 hours


Who is online

Users browsing this forum: No registered users and 2 guests


You cannot post new topics in this forum
You cannot reply to topics in this forum
You cannot edit your posts in this forum
You cannot delete your posts in this forum
You cannot post attachments in this forum

Search for:
Яндекс.Метрика
Powered by phpBB © 2000, 2002, 2005, 2007 phpBB Group