\m/ 80's metal \m/

Информационно-аналитический форум "80 см пыли" (In Search We Trust) "У нас никто никуда не спешит"
Me For You - http://me-4u.com
It is currently 18 Nov 2019

All times are UTC + 3 hours

Spoiler
Chat - temporary registration for foreign users (please leave your application here)







Post new topic Reply to topic  [ 13 posts ] 
Author Message
 
PostPosted: 22 Mar 2012 
Работнечег
User avatar
Joined: 28 Aug 2007
Posts: 6061
Lоcаtion: г. Москва
Age: 30
Name: Дима
Image

Band: Red Baron
Album: Resurrection
Label: Long Island Records
Genre: Hard(?) Rock
Country: Canada
Format: Flac + Log + Cue + Covers
Size: 422 Mb

Line-Up:
Gord Carson - Bass,Rhytm Guitar, Backing Vocals
Dave Milks - Drums
Blake Redwood - Lead Guitar, Rhytm Guitar, Backing Vocals
Christian Reinhardt - Lead Vocals, Keyboards, Bass, Acoustic Guitars, Percussion


Tracklist:
1. Here Comes the Devil 07:15
2. Jesus Saves 05:04
3. Midnite Mover 04:32

4. Evil Woman 03:17
5. World of Fantasy 05:54
6. For Yasgur's Farm 04:18

7. Red Baron 06:25
8. Gypsy (Uriah Heep Cover) 05:34
9. Death or Glory 03:58
10. On the Road 02:48
11. What Comes to Pass 05:10
12. Lookin' for Somebody 05:21

13. Donna 05:52

LOG
Exact Audio Copy V0.99 prebeta 5 from 4. May 2009

EAC extraction logfile from 21. March 2012, 20:15

Red Baron / Resurrection

Used drive : PIONEER DVD-RW DVR-116D Adapter: 0 ID: 0

Read mode : Secure
Utilize accurate stream : Yes
Defeat audio cache : Yes
Make use of C2 pointers : No

Read offset correction : 96
Overread into Lead-In and Lead-Out : No
Fill up missing offset samples with silence : Yes
Delete leading and trailing silent blocks : No
Null samples used in CRC calculations : Yes
Used interface : Native Win32 interface for Win NT & 2000

Used output format : User Defined Encoder
Selected bitrate : 32 kBit/s
Quality : High
Add ID3 tag : No
Command line compressor : C:\Program Files\Exact Audio Copy\Flac\flac.exe
Additional command line options : -6 -V %s


TOC of the extracted CD

Track | Start | Length | Start sector | End sector
---------------------------------------------------------
1 | 0:00.00 | 7:16.40 | 0 | 32739
2 | 7:16.40 | 5:05.27 | 32740 | 55641
3 | 12:21.67 | 4:36.45 | 55642 | 76386
4 | 16:58.37 | 3:19.17 | 76387 | 91328
5 | 20:17.54 | 5:56.61 | 91329 | 118089
6 | 26:14.40 | 4:20.02 | 118090 | 137591
7 | 30:34.42 | 6:27.55 | 137592 | 166671
8 | 37:02.22 | 5:36.55 | 166672 | 191926
9 | 42:39.02 | 4:00.68 | 191927 | 209994
10 | 46:39.70 | 2:52.52 | 209995 | 222946
11 | 49:32.47 | 5:12.70 | 222947 | 246416
12 | 54:45.42 | 5:23.68 | 246417 | 270709
13 | 60:09.35 | 5:52.50 | 270710 | 297159


Range status and errors

Selected range

Filename D:\Музыка\Lossless\Red Baron - Resurrection (1995)\Red Baron - Resurrection.wav

Peak level 97.7 %
Range quality 99.9 %
Copy CRC 03F2D9A8
Copy OK

No errors occurred


AccurateRip summary

Track 1 not present in database
Track 2 not present in database
Track 3 not present in database
Track 4 not present in database
Track 5 not present in database
Track 6 not present in database
Track 7 not present in database
Track 8 not present in database
Track 9 not present in database
Track 10 not present in database
Track 11 not present in database
Track 12 not present in database
Track 13 not present in database

None of the tracks are present in the AccurateRip database

End of status report

CUE
REM GENRE "Heavy Metal"
REM DATE 1995
REM DISCID AC0F7A0D
REM COMMENT "ExactAudioCopy v0.99pb5"
PERFORMER "Red Baron"
TITLE "Resurrection"
FILE "Red Baron - Resurrection.flac" WAVE
TRACK 01 AUDIO
TITLE "Here Comes The Devil"
PERFORMER "Red Baron"
INDEX 01 00:00:00
TRACK 02 AUDIO
TITLE "Jesus Saves"
PERFORMER "Red Baron"
INDEX 00 07:15:42
INDEX 01 07:16:40
TRACK 03 AUDIO
TITLE "Midnite Mover"
PERFORMER "Red Baron"
INDEX 00 12:20:70
INDEX 01 12:21:67
TRACK 04 AUDIO
TITLE "Evil Woman"
PERFORMER "Red Baron"
INDEX 00 16:54:55
INDEX 01 16:58:37
TRACK 05 AUDIO
TITLE "World Of Fantasy"
PERFORMER "Red Baron"
INDEX 00 20:15:37
INDEX 01 20:17:54
TRACK 06 AUDIO
TITLE "For Yascur's Farm"
PERFORMER "Red Baron"
INDEX 00 26:11:67
INDEX 01 26:14:40
TRACK 07 AUDIO
TITLE "Red Baron"
PERFORMER "Red Baron"
INDEX 00 30:32:45
INDEX 01 30:34:42
TRACK 08 AUDIO
TITLE "Gypsy (Uriah Heep Cover)"
PERFORMER "Red Baron"
INDEX 00 37:00:25
INDEX 01 37:02:22
TRACK 09 AUDIO
TITLE "Death Or Glory"
PERFORMER "Red Baron"
INDEX 00 42:37:05
INDEX 01 42:39:02
TRACK 10 AUDIO
TITLE "On The Road"
PERFORMER "Red Baron"
INDEX 00 46:37:72
INDEX 01 46:39:70
TRACK 11 AUDIO
TITLE "What Comes To Pass"
PERFORMER "Red Baron"
INDEX 00 49:28:42
INDEX 01 49:32:47
TRACK 12 AUDIO
TITLE "Lookin' For Somebody"
PERFORMER "Red Baron"
INDEX 00 54:43:45
INDEX 01 54:45:42
TRACK 13 AUDIO
TITLE "Donna"
PERFORMER "Red Baron"
INDEX 00 60:07:37
INDEX 01 60:09:35

Spectrum
Image



Narod.Ru

Никогда бы не подумал, что альбом выпущен в 1995 году. Придеться по душе любителям хэви/харда начала 80-х. В целом среднетмеповые песенки, с приятным вокалом, местами с клавишами, которые почти не вылезают на первый план и совсем не напрягают. Не знаю, где на архивах дум услышали :shok:
Спектр мягко говоря не очень, но по звуку нормально вообщем...
P.S. чего-то дившара не хочет грузиться на форум :(


Top
 Profile E-mail  
 
 
PostPosted: 22 Mar 2012 
спирт 100%
User avatar
Joined: 22 Sep 2008
Posts: 4481
Age: 48
Name: Саня
Дим,Спасибо! :thanx:


Top
 Profile  
 
 
PostPosted: 23 Mar 2012 
Анатолий
User avatar
Joined: 18 Oct 2008
Posts: 3593
Lоcаtion: Армавир
Age: 42
Name: Анатолий
church

Спасибо огромное за этот подарок!!! :thanx: Очень давно искал в CD качестве.

church wrote:
Не знаю, где на архивах дум услышали


Полагаю речь шла о втором альбоме.


Top
 Profile E-mail  
 
 
PostPosted: 24 Mar 2012 
Хиппей (support team)
User avatar
Joined: 30 Jul 2007
Posts: 115569
Lоcаtion: Киев (Kyiv, UA)
Age: 46
Name: Andrey
:thanx:

mirror: Speedy l Narod

church wrote:
чего-то дившара не хочет грузиться на форум

Там у нас код на неё немного нарушен... :oops:

_________________


Top
 Profile E-mail  
 
 
PostPosted: 26 Mar 2012 
Хиппей (support team)
User avatar
Joined: 30 Jul 2007
Posts: 115569
Lоcаtion: Киев (Kyiv, UA)
Age: 46
Name: Andrey
Хм... упрощенный вариант соотечественников из Rush? :shok:
Хард-рок 70-х с клавишными и арт-рок на грани хэви - где-то я уже подобное слышал :scratch:
Альбом более-менее понравился. Обожаю канадцев за непредсказуемость и разнообразность стилевых рамок в одном альбоме :meloman:

ps. Последние 4 трэка можно смело выбросить. Или отдать другой группе.

6+/10

_________________


Top
 Profile E-mail  
 
 
PostPosted: 18 Aug 2012 
Partisanen - nicht kapitulieren!!
User avatar
Joined: 25 Dec 2011
Posts: 7184
Lоcаtion: партизанские леса
Age: 47
Name: Владимир
Спасибо, даже не ожидал... очень приятственный релиз! А может у кого и второй албум имется ?

_________________
One more beer and Heavy Metal and I'm just fine!
старовер, куле... слово "блин" - до сих пор через Ъ говорю


Top
 Profile E-mail  
 
 
PostPosted: 18 Aug 2012 
Работнечег
User avatar
Joined: 28 Aug 2007
Posts: 6061
Lоcаtion: г. Москва
Age: 30
Name: Дима
Со вторым альбумом пока полная труба, хотя вот нашел одного человека, может что-то получиться... а так даже в мп3 не видать :( Группа на самом деле достойная, имхо!


Top
 Profile E-mail  
 
 
PostPosted: 19 Aug 2012 
10cm
User avatar
Joined: 03 Aug 2012
Posts: 98
Lоcаtion: Украина Донецк
Age: 60
Name: Владимир
:benya: :benya: :benya:
Спасибо большое!
Вчера скачал, сегодня с утра решил послушать. Жена на кухне. Я за компом. Кричу жене, что бы взяла трубку (собрала на кухне две трубки городского телефона). Она не слышит. А телефон разрывается. Встал чтобы пойти самому взять (как в анекдоте: "Сиди я сам открою") и тут до меня доходит что это начало первого трека. :dash:

_________________
Когда мы все попадем в тюрьму за скачивание музыки, надеюсь нас рассадят по жанрам.


Top
 Profile E-mail  
 
 
PostPosted: 19 Aug 2012 
А может смените мне статус?..
User avatar
Joined: 06 Sep 2007
Posts: 829
Lоcаtion: СПб
Age: 64
Name: Сергей
:thanx:


Top
 Profile  
 
 
PostPosted: 19 Aug 2012 
Работнечег
User avatar
Joined: 28 Aug 2007
Posts: 6061
Lоcаtion: г. Москва
Age: 30
Name: Дима
:benya: :benya: :benya:
Спасибо большое!
Вчера скачал, сегодня с утра решил послушать. Жена на кухне. Я за компом. Кричу жене, что бы взяла трубку (собрала на кухне две трубки городского телефона). Она не слышит. А телефон разрывается. Встал чтобы пойти самому взять (как в анекдоте: "Сиди я сам открою") и тут до меня доходит что это начало первого трека. :dash:

:benya: :benya:
P.S. есть хорошие новости, второй альбом наверное тоже будет в лосслессе ;)


Top
 Profile E-mail  
 
 
PostPosted: 19 Aug 2012 
Partisanen - nicht kapitulieren!!
User avatar
Joined: 25 Dec 2011
Posts: 7184
Lоcаtion: партизанские леса
Age: 47
Name: Владимир
Quote:
есть хорошие новости, второй альбом наверное тоже будет в лосслессе

замечательно! :true:

_________________
One more beer and Heavy Metal and I'm just fine!
старовер, куле... слово "блин" - до сих пор через Ъ говорю


Top
 Profile E-mail  
 
 
PostPosted: 19 Aug 2012 
10cm
User avatar
Joined: 03 Aug 2012
Posts: 98
Lоcаtion: Украина Донецк
Age: 60
Name: Владимир

P.S. есть хорошие новости, второй альбом наверное тоже будет в лосслессе ;)


Новость действительно хорошая. Бум ждать.

_________________
Когда мы все попадем в тюрьму за скачивание музыки, надеюсь нас рассадят по жанрам.


Top
 Profile E-mail  
 
 
PostPosted: 20 Aug 2012 
Анатолий
User avatar
Joined: 18 Oct 2008
Posts: 3593
Lоcаtion: Армавир
Age: 42
Name: Анатолий
church

Ты продолжаешь безумно рудовать своими изысканиями!!! :true: :thanx: Только боюсь нас ждёт не со всем то, что было на первом альбоме...


Top
 Profile E-mail  
 
Display posts from previous:  Sort by  
Post new topic Reply to topic  [ 13 posts ] 

All times are UTC + 3 hours


Who is online

Users browsing this forum: No registered users and 1 guest


You cannot post new topics in this forum
You cannot reply to topics in this forum
You cannot edit your posts in this forum
You cannot delete your posts in this forum
You cannot post attachments in this forum

Search for:
Яндекс.Метрика
Powered by phpBB © 2000, 2002, 2005, 2007 phpBB Group