\m/ 80's metal \m/

Информационно-аналитический форум "80 см пыли" (In Search We Trust) "У нас никто никуда не спешит"
Me For You - http://me-4u.com
It is currently 21 Aug 2019

All times are UTC + 3 hours

Spoiler
Chat - temporary registration for foreign users (please leave your application here)







Post new topic Reply to topic  [ 6 posts ] 
Author Message
 
PostPosted: 10 Mar 2012 
Работнечег
User avatar
Joined: 28 Aug 2007
Posts: 5939
Lоcаtion: г. Москва
Age: 30
Name: Дима
Image

Band: Random
Album: Reloaded
Label: Rockline Records
Genre: Rock
Country: Germany
Format: Flac + Log + Cue + Covers
Size: 323 Mb

Line-Up:
Fred Otto - Drums
Michi Classen - Guitars
Enrico Palazzo - Vocals
Majk Moti - Guitars
Peter Hagmann - Keyboards, Guitar
Frank Farby - Vocals, Bass


Tracklist:
01. Your Smilin' Face 05:38
02. All That You Do 03:39
03. Angel 06:43
04. Baby 03:52
05. Baby Special Version 03:52
06. Black Wheels and Steel 03:23
07. CIA 03:31
08. Don't Kill the World 03:30
09. Hello 03:36
10. Heartbeat 04:57
11. Willie 03:51

LOG
Exact Audio Copy V0.99 prebeta 5 from 4. May 2009

EAC extraction logfile from 11. December 2011, 13:29

Random / Reloaded

Used drive : PIONEER DVD-RW DVR-116D Adapter: 0 ID: 0

Read mode : Secure
Utilize accurate stream : Yes
Defeat audio cache : Yes
Make use of C2 pointers : No

Read offset correction : 96
Overread into Lead-In and Lead-Out : No
Fill up missing offset samples with silence : Yes
Delete leading and trailing silent blocks : No
Null samples used in CRC calculations : Yes
Used interface : Native Win32 interface for Win NT & 2000

Used output format : User Defined Encoder
Selected bitrate : 32 kBit/s
Quality : High
Add ID3 tag : No
Command line compressor : C:\Program Files\Exact Audio Copy\Flac\flac.exe
Additional command line options : -6 -V %s


TOC of the extracted CD

Track | Start | Length | Start sector | End sector
---------------------------------------------------------
1 | 0:00.00 | 5:38.23 | 0 | 25372
2 | 5:38.23 | 3:39.16 | 25373 | 41813
3 | 9:17.39 | 6:42.49 | 41814 | 72012
4 | 16:00.13 | 3:51.64 | 72013 | 89401
5 | 19:52.02 | 3:51.64 | 89402 | 106790
6 | 23:43.66 | 3:22.65 | 106791 | 122005
7 | 27:06.56 | 3:31.34 | 122006 | 137864
8 | 30:38.15 | 3:30.11 | 137865 | 153625
9 | 34:08.26 | 3:36.32 | 153626 | 169857
10 | 37:44.58 | 4:56.60 | 169858 | 192117
11 | 42:41.43 | 3:50.40 | 192118 | 209407


Range status and errors

Selected range

Filename D:\Музыка\Lossless\Random - Reloaded (2010)\Random - Reloaded.wav

Peak level 100.0 %
Range quality 100.0 %
Copy CRC 9A1BB414
Copy OK

No errors occurred


AccurateRip summary

Track 1 not present in database
Track 2 not present in database
Track 3 not present in database
Track 4 not present in database
Track 5 not present in database
Track 6 not present in database
Track 7 not present in database
Track 8 not present in database
Track 9 not present in database
Track 10 not present in database
Track 11 not present in database

None of the tracks are present in the AccurateRip database

End of status report

CUE
REM GENRE "Heavy Metal"
REM DATE 2010
REM DISCID 8D0AE80B
REM COMMENT "ExactAudioCopy v0.99pb5"
PERFORMER "Random"
TITLE "Reloaded"
FILE "Random - Reloaded.flac" WAVE
TRACK 01 AUDIO
TITLE "Your Smilin Face"
PERFORMER "Random"
FLAGS DCP
INDEX 01 00:00:00
TRACK 02 AUDIO
TITLE "All That You Do"
PERFORMER "Random"
FLAGS DCP
INDEX 00 05:36:23
INDEX 01 05:38:23
TRACK 03 AUDIO
TITLE "Angel"
PERFORMER "Random"
FLAGS DCP
INDEX 00 09:15:39
INDEX 01 09:17:39
TRACK 04 AUDIO
TITLE "Baby"
PERFORMER "Random"
FLAGS DCP
INDEX 00 15:58:13
INDEX 01 16:00:13
TRACK 05 AUDIO
TITLE "Baby (Special Version)"
PERFORMER "Random"
FLAGS DCP
INDEX 00 19:50:02
INDEX 01 19:52:02
TRACK 06 AUDIO
TITLE "Black Wheels And Steel"
PERFORMER "Random"
FLAGS DCP
INDEX 00 23:41:66
INDEX 01 23:43:66
TRACK 07 AUDIO
TITLE "CIA"
PERFORMER "Random"
FLAGS DCP
INDEX 00 27:04:56
INDEX 01 27:06:56
TRACK 08 AUDIO
TITLE "Don't Kill The World"
PERFORMER "Random"
FLAGS DCP
INDEX 00 30:36:15
INDEX 01 30:38:15
TRACK 09 AUDIO
TITLE "Hello"
PERFORMER "Random"
FLAGS DCP
INDEX 00 34:06:26
INDEX 01 34:08:26
TRACK 10 AUDIO
TITLE "Heartbeat"
PERFORMER "Random"
FLAGS DCP
INDEX 00 37:42:58
INDEX 01 37:44:58
TRACK 11 AUDIO
TITLE "Willie"
PERFORMER "Random"
FLAGS DCP
INDEX 00 42:39:43
INDEX 01 42:41:43


Narod.Ru

Спасибо за предоставленный диск Саше spryt777! Вообщем-то понравился альбом, хотя конечно легкова-то для меня, но зато позитивно-рокиндрольно. Однозначно стоит выделить Your Smilin' Face, остальные песенки тож на уровне. Хотя и без проходняков не обошлось, коих я насчитал целый одЫн - All That You Do.


Top
 Profile E-mail  
 
 
PostPosted: 10 Mar 2012 
хард н хэвщик (support team)
User avatar
Joined: 02 Jun 2008
Posts: 16881
Lоcаtion: Н.Новгород
Age: 32
Name: Артем
:true:


Top
 Profile  
 
 
PostPosted: 11 Mar 2012 
Хиппей (support team)
User avatar
Joined: 30 Jul 2007
Posts: 114031
Lоcаtion: Киев (Kyiv, UA)
Age: 46
Name: Andrey
:thanx:

mirror: Speedy l Narod

_________________


Top
 Profile E-mail  
 
 
PostPosted: 11 Mar 2012 
Хиппей (support team)
User avatar
Joined: 30 Jul 2007
Posts: 114031
Lоcаtion: Киев (Kyiv, UA)
Age: 46
Name: Andrey
Дима... спектр забыл прикрепить :oops:

spectrum
Image


Ничо, что он какой-то... вялый и ужатый? :vic:

_________________


Top
 Profile E-mail  
 
 
PostPosted: 12 Mar 2012 
хард н хэвщик (support team)
User avatar
Joined: 02 Jun 2008
Posts: 16881
Lоcаtion: Н.Новгород
Age: 32
Name: Артем
фигасе :shok: вот так звукоинженеры :benya:


Top
 Profile  
 
 
PostPosted: 22 Mar 2012 
Работнечег
User avatar
Joined: 28 Aug 2007
Posts: 5939
Lоcаtion: г. Москва
Age: 30
Name: Дима
Scatterbrain wrote:
Дима... спектр забыл прикрепить :oops:

spectrum
Image


Ничо, что он какой-то... вялый и ужатый? :vic:

а чего тут сделаешь Андрюх?! переиздания думаю явно не будет :crazy:


Top
 Profile E-mail  
 
Display posts from previous:  Sort by  
Post new topic Reply to topic  [ 6 posts ] 

All times are UTC + 3 hours


Who is online

Users browsing this forum: No registered users and 1 guest


You cannot post new topics in this forum
You cannot reply to topics in this forum
You cannot edit your posts in this forum
You cannot delete your posts in this forum
You cannot post attachments in this forum

Search for:
Яндекс.Метрика
Powered by phpBB © 2000, 2002, 2005, 2007 phpBB Group