\m/ 80's metal \m/

Информационно-аналитический форум "80 см пыли" (In Search We Trust) "У нас никто никуда не спешит"
Железнодорожная биржа - RailAgent
It is currently 20 Jul 2018

All times are UTC + 3 hours

Spoiler
Chat - temporary registration for foreign users (please leave your application here)







Post new topic Reply to topic  [ 2 posts ] 
Author Message
 
PostPosted: 09 Feb 2012 
5-speed satisfactor
User avatar
Joined: 16 Feb 2009
Posts: 3524
Lоcаtion: New York, USA
Age: 40
Name: Leonid
Razor - 1994 - Exhumed (Com.)

Image

Disc 1
1. Killer Instinct 02:43
2. Armed and Dangerous 05:05
3. Take This Torch 03:20
4. Fast and Loud 04:19
5. City of Damnation 03:43
6. Gatecrasher 02:59
7. Cross Me Fool 03:12
8. Evil Invaders 03:49
9. Iron Hammer 03:39
10. Instant Death 02:57
11. Speed Merchants 03:45
12. Thrash Dance 03:18
13. A.O.D. 03:04
14. K.M.A. 02:49
15. Forced Annihilation 05:02
16. Snake Eyes 02:40

Disc 2
1. The Marshall Arts 02:45
2. Behind Bars 02:14
3. Below the Belt 02:54
4. Enforcer 03:45
5. Violent Restitution 02:33
6. Edge of the Razor 04:14
7. Soldier of Fortune 02:58
8. Miami 03:14
9. Electric Torture 02:47
10. Meaning of Pain 03:10
11. Shotgun Justice 03:15
12. Parricide 02:44
13. Brass Knuckles 03:15
14. Concussion 02:24
15. The Pugilist 03:42
16. In Protest 03:43
17. Bad Vibrations 03:01
18. Road Gunner 03:08
19. Free Lunch 02:39
20. Iron Legions 02:34
21. Psychopath 02:30
22. End of the War 03:23

cues
Exact Audio Copy V0.99 prebeta 5 from 4. May 2009

EAC extraction logfile from 15. January 2012, 4:24

Razor / Exhumed

Used drive : PLEXTOR DVDR PX-760A Adapter: 1 ID: 0

Read mode : Secure
Utilize accurate stream : Yes
Defeat audio cache : Yes
Make use of C2 pointers : Yes

Read offset correction : 30
Overread into Lead-In and Lead-Out : Yes
Fill up missing offset samples with silence : Yes
Delete leading and trailing silent blocks : No
Null samples used in CRC calculations : Yes
Used interface : Installed external ASPI interface

Used output format : Internal WAV Routines
Sample format : 44.100 Hz; 16 Bit; Stereo


TOC of the extracted CD

Track | Start | Length | Start sector | End sector
---------------------------------------------------------
1 | 0:00.32 | 2:43.55 | 32 | 12311
2 | 2:44.12 | 5:05.63 | 12312 | 35249
3 | 7:50.00 | 3:20.42 | 35250 | 50291
4 | 11:10.42 | 4:19.08 | 50292 | 69724
5 | 15:29.50 | 3:43.15 | 69725 | 86464
6 | 19:12.65 | 2:59.05 | 86465 | 99894
7 | 22:11.70 | 3:12.27 | 99895 | 114321
8 | 25:24.22 | 3:49.40 | 114322 | 131536
9 | 29:13.62 | 3:38.65 | 131537 | 147951
10 | 32:52.52 | 2:57.05 | 147952 | 161231
11 | 35:49.57 | 3:45.45 | 161232 | 178151
12 | 39:35.27 | 3:18.45 | 178152 | 193046
13 | 42:53.72 | 3:04.70 | 193047 | 206916
14 | 45:58.67 | 2:49.68 | 206917 | 219659
15 | 48:48.60 | 5:02.47 | 219660 | 242356
16 | 53:51.32 | 2:40.70 | 242357 | 254426


Range status and errors

Selected range

Filename L:\ToFlac\Razor\Exhumed\Razor - Exhumed disc 1.wav

Peak level 100.0 %
Range quality 100.0 %
Copy CRC D15D617E
Copy OK

No errors occurred

End of status report

Exact Audio Copy V0.99 prebeta 5 from 4. May 2009

EAC extraction logfile from 15. January 2012, 3:55

Razor / Exhumed

Used drive : PLEXTOR DVDR PX-760A Adapter: 1 ID: 0

Read mode : Secure
Utilize accurate stream : Yes
Defeat audio cache : Yes
Make use of C2 pointers : Yes

Read offset correction : 30
Overread into Lead-In and Lead-Out : Yes
Fill up missing offset samples with silence : Yes
Delete leading and trailing silent blocks : No
Null samples used in CRC calculations : Yes
Used interface : Installed external ASPI interface

Used output format : Internal WAV Routines
Sample format : 44.100 Hz; 16 Bit; Stereo


TOC of the extracted CD

Track | Start | Length | Start sector | End sector
---------------------------------------------------------
1 | 0:00.32 | 2:45.53 | 32 | 12459
2 | 2:46.10 | 2:14.17 | 12460 | 22526
3 | 5:00.27 | 2:54.58 | 22527 | 35634
4 | 7:55.10 | 3:45.25 | 35635 | 52534
5 | 11:40.35 | 2:33.00 | 52535 | 64009
6 | 14:13.35 | 4:14.05 | 64010 | 83064
7 | 18:27.40 | 2:58.72 | 83065 | 96486
8 | 21:26.37 | 3:13.73 | 96487 | 111034
9 | 24:40.35 | 2:47.67 | 111035 | 123626
10 | 27:28.27 | 3:10.20 | 123627 | 137896
11 | 30:38.47 | 3:15.33 | 137897 | 152554
12 | 33:54.05 | 2:44.42 | 152555 | 164896
13 | 36:38.47 | 3:15.10 | 164897 | 179531
14 | 39:53.57 | 2:24.30 | 179532 | 190361
15 | 42:18.12 | 3:42.53 | 190362 | 207064
16 | 46:00.65 | 3:43.02 | 207065 | 223791
17 | 49:43.67 | 3:01.20 | 223792 | 237386
18 | 52:45.12 | 3:08.20 | 237387 | 251506
19 | 55:53.32 | 2:39.35 | 251507 | 263466
20 | 58:32.67 | 2:34.25 | 263467 | 275041
21 | 61:07.17 | 2:30.33 | 275042 | 286324
22 | 63:37.50 | 3:23.00 | 286325 | 301549


Range status and errors

Selected range

Filename L:\ToFlac\Razor\Exhumed\Razor - Exhumed disc 2.wav

Peak level 100.0 %
Range quality 100.0 %
Copy CRC F31652BB
Copy OK

No errors occurred

End of status report


Опять таки с ЕБАЙя ушло:
http://www.ebay.com/itm/300656143468?ss ... 210wt_1207

А файлы здесь:

https://rapidshare.com/files/1438638560 ... xhumed.rar

_________________
Death rules! Metal to all who oppose!


Top
 Profile  
 
 
PostPosted: 09 Feb 2012 
Хиппей (support team)
User avatar
Joined: 30 Jul 2007
Posts: 105137
Lоcаtion: Киев (Kyiv, UA)
Age: 45
Name: Andrey
:thanx:

Speedy l Narod

_________________


Top
 Profile E-mail  
 
Display posts from previous:  Sort by  
Post new topic Reply to topic  [ 2 posts ] 

All times are UTC + 3 hours


Who is online

Users browsing this forum: No registered users and 1 guest


You cannot post new topics in this forum
You cannot reply to topics in this forum
You cannot edit your posts in this forum
You cannot delete your posts in this forum
You cannot post attachments in this forum

Search for:
Яндекс.Метрика
cron
Powered by phpBB © 2000, 2002, 2005, 2007 phpBB Group