\m/ 80's metal \m/

Информационно-аналитический форум "80 см пыли" (In Search We Trust) "У нас никто никуда не спешит"
Me For You - http://me-4u.com
It is currently 18 Oct 2019

All times are UTC + 3 hours

Spoiler
Chat - temporary registration for foreign users (please leave your application here)







Post new topic Reply to topic  [ 21 posts ]  Go to page 1, 2  Next
Author Message
 
PostPosted: 07 Jan 2009 
Анатолий
User avatar
Joined: 18 Oct 2008
Posts: 3572
Lоcаtion: Армавир
Age: 42
Name: Анатолий
Line-up:

Greg Powell - Vocals, Guitar
Kenny Powell - Guitar
Andy Haas - Bass
Rick Murray - Drums

1. Dead March 04:02
2. Uneven Plow 03:05
3. Chained 03:15
4. Rain Down 04:53
5. Reopening the Gates 05:01
6. Everything 04:51
7. Well Fed 04:06
8. Crushing Day 04:22
9. Saturday 05:18
10. Into the Ground 03:27

Total playing time 42:20

Как-то не попадался этот альбом... Может есть у кого?


Top
 Profile E-mail  
 
 
PostPosted: 07 Jan 2009 
Хиппей (support team)
User avatar
Joined: 30 Jul 2007
Posts: 114899
Lоcаtion: Киев (Kyiv, UA)
Age: 46
Name: Andrey
Пока нету. Но он существует :true:


Top
 Profile E-mail  
 
 
PostPosted: 07 Jan 2009 
Metal Collector
User avatar
Joined: 16 Nov 2008
Posts: 1267
Lоcаtion: Химки
Age: 36
Name: Андрей
На what.cd выкладывали лося когда-то, но я это г... даже качать не стал.


Top
 Profile E-mail  
 
 
PostPosted: 08 Jan 2009 
Анатолий
User avatar
Joined: 18 Oct 2008
Posts: 3572
Lоcаtion: Армавир
Age: 42
Name: Анатолий
Terrion

Что ж так сурово то?


Top
 Profile E-mail  
 
 
PostPosted: 08 Jan 2009 
Power Metal Maniac
User avatar
Joined: 09 Aug 2008
Posts: 6914
Lоcаtion: Москва
Age: 41
Name: Егор
Privateer
Толя, не рекомендую - редкостная фигня, ничего общего по музыке по сути не имеющая с остальными альбомами Омена.

_________________
Long Live Metal!


Top
 Profile  
 
 
PostPosted: 08 Jan 2009 
Metal Collector
User avatar
Joined: 16 Nov 2008
Posts: 1267
Lоcаtion: Химки
Age: 36
Name: Андрей
Вот-вот, я это и имел ввиду. Небо и земля. Что-то в духе как "Dissident Alliance" у Jag Panzer был. Так же отличается от всего остального, причём в крайне худшую сторону. А Омен в целом я уважаю, если что ;)


Top
 Profile E-mail  
 
 
PostPosted: 08 Jan 2009 
семерых одним ударом
Joined: 18 Aug 2007
Posts: 4159
Lоcаtion: Владивосток
Age: 44
Name: Николай Николаевич
Powell младший сдобрил альбомец модным звуком аля Пантера...после реюниона мне вообще группа перестала нравиться


Top
 Profile  
 
 
PostPosted: 08 Jan 2009 
Анатолий
User avatar
Joined: 18 Oct 2008
Posts: 3572
Lоcаtion: Армавир
Age: 42
Name: Анатолий
И всё же... рискну его скачать..., было бы откуда. :smile:


Top
 Profile E-mail  
 
 
PostPosted: 08 Jan 2009 
семерых одним ударом
Joined: 18 Aug 2007
Posts: 4159
Lоcаtion: Владивосток
Age: 44
Name: Николай Николаевич
есть только 320


Top
 Profile  
 
 
PostPosted: 08 Jan 2009 
Анатолий
User avatar
Joined: 18 Oct 2008
Posts: 3572
Lоcаtion: Армавир
Age: 42
Name: Анатолий
aziel

Спасибо, но очень хочется лося с CD рипом.


Top
 Profile E-mail  
 
 
PostPosted: 10 Oct 2010 
Работнечег
User avatar
Joined: 28 Aug 2007
Posts: 6031
Lоcаtion: г. Москва
Age: 30
Name: Дима
Лось ещё нужен? :oops:


Top
 Profile E-mail  
 
 
PostPosted: 19 Oct 2010 
Анатолий
User avatar
Joined: 18 Oct 2008
Posts: 3572
Lоcаtion: Армавир
Age: 42
Name: Анатолий
church

БЕЗУСЛОВНО!!! :true: :dash:


Top
 Profile E-mail  
 
 
PostPosted: 25 Oct 2010 
Работнечег
User avatar
Joined: 28 Aug 2007
Posts: 6031
Lоcаtion: г. Москва
Age: 30
Name: Дима
Image

Band: Omen
Album: Reopening The Gates
Label: Massacre Records
Genre: Power Metal
Country: USA
Format: Flac + Log + Cue/Covers
Size: 291 Mb/6 Mb

Line-Up:
Greg Powell - Vocals, Guitar
Kenny Powell - Guitar
Andy Haas - Bass
Rick Murray - Drums


Tracklist:
1. Dead March 04:02
2. Uneven Plow 03:05
3. Chained 03:15
4. Rain Down 04:53
5. Reopening the Gates 05:01
6. Everything 04:51
7. Well Fed 04:06
8. Crushing Day 04:22
9. Saturday 05:18
10. Into the Ground 03:27
Total playing time 42:20

Spectrum
Image

LOG
Exact Audio Copy V0.99 prebeta 5 from 4. May 2009

EAC extraction logfile from 25. October 2010, 15:27

Omen / Reopening the Gates

Used drive : PIONEER DVD-RW DVR-116D Adapter: 0 ID: 0

Read mode : Secure
Utilize accurate stream : Yes
Defeat audio cache : Yes
Make use of C2 pointers : No

Read offset correction : 96
Overread into Lead-In and Lead-Out : No
Fill up missing offset samples with silence : Yes
Delete leading and trailing silent blocks : No
Null samples used in CRC calculations : Yes
Used interface : Native Win32 interface for Win NT & 2000

Used output format : User Defined Encoder
Selected bitrate : 32 kBit/s
Quality : High
Add ID3 tag : No
Command line compressor : C:\Program Files\Exact Audio Copy\Flac\flac.exe
Additional command line options : -6 -V %s


TOC of the extracted CD

Track | Start | Length | Start sector | End sector
---------------------------------------------------------
1 | 0:01.00 | 4:02.38 | 75 | 18262
2 | 4:03.38 | 3:05.18 | 18263 | 32155
3 | 7:08.56 | 3:15.41 | 32156 | 46821
4 | 10:24.22 | 4:53.00 | 46822 | 68796
5 | 15:17.22 | 5:01.57 | 68797 | 91428
6 | 20:19.04 | 4:51.54 | 91429 | 113307
7 | 25:10.58 | 4:05.73 | 113308 | 131755
8 | 29:16.56 | 4:22.03 | 131756 | 151408
9 | 33:38.59 | 5:18.14 | 151409 | 175272
10 | 38:56.73 | 3:27.40 | 175273 | 190837


Range status and errors

Selected range

Filename D:\Музыка\Lossless\Omen - Reopening The Gates (1997)\Omen - Reopening the Gates.wav

Peak level 99.4 %
Range quality 100.0 %
Copy CRC 4B8478C7
Copy OK

No errors occurred


AccurateRip summary

Track 1 accurately ripped (confidence 2) [8C55DC0A]
Track 2 accurately ripped (confidence 2) [883EEB0D]
Track 3 accurately ripped (confidence 2) [98B3F63B]
Track 4 accurately ripped (confidence 2) [A2B4A120]
Track 5 accurately ripped (confidence 2) [77885BA7]
Track 6 accurately ripped (confidence 2) [39F56352]
Track 7 accurately ripped (confidence 2) [B9BDE087]
Track 8 accurately ripped (confidence 2) [1C628FB1]
Track 9 accurately ripped (confidence 2) [162CAB3F]
Track 10 accurately ripped (confidence 2) [8A7A8BCF]

All tracks accurately ripped

End of status report

CUE
REM GENRE "Power Metal"
REM DATE 1997
REM DISCID 6E09EF0A
REM COMMENT "ExactAudioCopy v0.99pb5"
PERFORMER "Omen"
TITLE "Reopening the Gates"
FILE "Omen - Reopening the Gates.flac" WAVE
TRACK 01 AUDIO
TITLE "Dead March"
PERFORMER "Omen"
FLAGS DCP
INDEX 00 00:00:00
INDEX 01 00:01:00
TRACK 02 AUDIO
TITLE "Uneven Plow"
PERFORMER "Omen"
FLAGS DCP
INDEX 01 04:03:38
TRACK 03 AUDIO
TITLE "Chained"
PERFORMER "Omen"
FLAGS DCP
INDEX 01 07:08:56
TRACK 04 AUDIO
TITLE "Rain Down"
PERFORMER "Omen"
FLAGS DCP
INDEX 01 10:24:22
TRACK 05 AUDIO
TITLE "Reopeningthe Gates"
PERFORMER "Omen"
FLAGS DCP
INDEX 01 15:17:22
TRACK 06 AUDIO
TITLE "Everything"
PERFORMER "Omen"
FLAGS DCP
INDEX 01 20:19:04
TRACK 07 AUDIO
TITLE "Well Fed"
PERFORMER "Omen"
FLAGS DCP
INDEX 01 25:10:58
TRACK 08 AUDIO
TITLE "Crushing Day"
PERFORMER "Omen"
FLAGS DCP
INDEX 01 29:16:56
TRACK 09 AUDIO
TITLE "Saturday"
PERFORMER "Omen"
FLAGS DCP
INDEX 01 33:38:59
TRACK 10 AUDIO
TITLE "Into the Ground"
PERFORMER "Omen"
FLAGS DCP
INDEX 01 38:56:73


Narod.ru


Top
 Profile E-mail  
 
 
PostPosted: 25 Oct 2010 
Gretzky must die
User avatar
Joined: 16 Sep 2010
Posts: 265
Lоcаtion: Московская обл.
Name: Андрей
Тоже надо приобщиться, как НАРОД позволит. Спасибо !!! :thanx: :thanx: :thanx:


Top
 Profile  
 
 
PostPosted: 25 Oct 2010 
Анатолий
User avatar
Joined: 18 Oct 2008
Posts: 3572
Lоcаtion: Армавир
Age: 42
Name: Анатолий
church

Спасибо, большое, Дмитрий! :thanx:


Top
 Profile E-mail  
 
 
PostPosted: 25 Aug 2011 
Пионэръ
Joined: 25 Aug 2011
Posts: 48
Lоcаtion: Worl
Name: Zoltan Tivesko
This is down! Please reupload!


Top
 Profile E-mail  
 
 
PostPosted: 27 Aug 2011 
Хиппей (support team)
User avatar
Joined: 30 Jul 2007
Posts: 114899
Lоcаtion: Киев (Kyiv, UA)
Age: 46
Name: Andrey
Quote:
Скачан последний раз:14 июн 2011 15:24

О... я как раз в это время селедку на шубу нарезал :dance:

Димка, перезальешь? :vic:

_________________


Top
 Profile E-mail  
 
 
PostPosted: 29 Aug 2011 
Работнечег
User avatar
Joined: 28 Aug 2007
Posts: 6031
Lоcаtion: г. Москва
Age: 30
Name: Дима
Новая ссылка в первом посте.


Top
 Profile E-mail  
 
 
PostPosted: 05 Jun 2012 
Хиппей (support team)
User avatar
Joined: 30 Jul 2007
Posts: 114899
Lоcаtion: Киев (Kyiv, UA)
Age: 46
Name: Andrey
:thanx:

mirror: MultiUp l Narod

Ой, только подобрался к теме. Объединяю их.

_________________


Top
 Profile E-mail  
 
 
PostPosted: 11 Jun 2012 
Хиппей (support team)
User avatar
Joined: 30 Jul 2007
Posts: 114899
Lоcаtion: Киев (Kyiv, UA)
Age: 46
Name: Andrey
Ха, кабы не имя группы, подумал бы... В общем, плохо бы подумал - Омэны крызанулись :crazy:
А так, закрыв глаза на название коллектива, слушал просто музыку.

Павера, здесь, естественно, нет. Именно Power Heavy Metal в его классическом понимании.
Зато валом классического Groove Thrash :true: Ненавистного мне ранее (буквально пару лет назад), но полюбившегося в начале 90-х после выхода Пантеровского "Вульгарной демонстрации силы".
Теперь у меня волна ренессанса, так сказать :oops:
Альбом ровный, как пелотка, жопа и ноги у обэпиляционной брюнетки. Воспинимается музыка легко, под чай с бубликами в самый раз.
В общем, выше среднего надо оценить работу, ибо хоть и не порвала она меня, но зацепила чем-то. Чем? Напором и техничностью.
Для тех, кто еще в танке - этот альбом исполнен в стиле группы Pantera 1992 года, только не такой безбашенный и более уравновешенный. И вокал не такой яркий, но звучит сие творение довольно пристойно :meloman:

6/10

_________________


Top
 Profile E-mail  
 
Display posts from previous:  Sort by  
Post new topic Reply to topic  [ 21 posts ]  Go to page 1, 2  Next

All times are UTC + 3 hours


Who is online

Users browsing this forum: No registered users and 1 guest


You cannot post new topics in this forum
You cannot reply to topics in this forum
You cannot edit your posts in this forum
You cannot delete your posts in this forum
You cannot post attachments in this forum

Search for:
Яндекс.Метрика
Powered by phpBB © 2000, 2002, 2005, 2007 phpBB Group