\m/ 80's metal \m/

Информационно-аналитический форум "80 см пыли" (In Search We Trust) "У нас никто никуда не спешит"
Me For You - http://me-4u.com
It is currently 23 Oct 2019

All times are UTC + 3 hours

Spoiler
Chat - temporary registration for foreign users (please leave your application here)







Post new topic Reply to topic  [ 12 posts ] 
Author Message
 
PostPosted: 11 Nov 2009 
ыыыы
User avatar
Joined: 17 May 2009
Posts: 952
Lоcаtion: Пушкино, МО
Age: 41
Name: Дмитрий
Onslaught 1989 - In search Of Sanity 1ST Press CD Japan


ImageImage
ImageImage


Группа "Onslaught" была сформирована в 1983 году в захолустном городке Вик (что неподалеку от Бристоля) двумя местными панками – Найджем Рокеттом (гитара) и Стивом Грайсом (ударные). Музыка, которую исполняла сия банда, представляла собой по стилю простенький нигилистичный хардкор. Тем не менее, у себя в окрестностях команда пользовалась популярностью, чему способствовали ее совместные выступления с "G.B.H.". Текучесть в составе была поначалу жуткая, но немного приостановилась с приходом Джейса Сталларда (бас) и Пола "Мо" Махони (вокал).

Recording line-up:

Line-up:
Steve Grimmett - Vocals
Nige Rockett - Guitar
Rob Trottman - Guitar
James Hinder - Bass
Steve Grice - Drums


Songs:

1. Asylum 05:17
2. In Search Of Sanity 07:20
3. Shellshock 06:45
4. Lightning War 06:56
5. Let There Be Rock (AC/DC Cover) 04:0
6. Blood Upon The Ice 08:21
7. Welcome To Dying 12:37
8. Power Play 06:23
9. Confused 02:00
====================
Playing time: 59:39

Released: Japan 1989 POLYDOR K.K./LONDON
Cat #: P00L 20106
Matrix: P00L-20106-A1F

Narod
MEGAUPLOAD

Log
EAC extraction logfile from 11. November 2009, 20:36 for CD
Onslaught / In Search of Sanity [POOL 20106]

Used drive : ASUS DRW-2014S1 Adapter: 0 ID: 0
Read mode : Secure with NO C2, accurate stream, disable cache
Read offset correction : 6
Overread into Lead-In and Lead-Out : No

Used output format : Internal WAV Routines
44.100 Hz; 16 Bit; Stereo

Other options :
Fill up missing offset samples with silence : Yes
Delete leading and trailing silent blocks : No
Installed external ASPI interface


Range status and errors
Selected range
Filename Y:\Музыка\Onslaught\1989 In Search Of Sanity\Onslaught - In Search of Sanity [POOL 20106].wav

Peak level 100.0 %
Range quality 100.0 %
CRC F9951440
Copy OK

No errors occured

End of status report

------------------------------------------------------------

EAC extraction logfile from 11. November 2009, 20:36 for CD
Onslaught / In Search of Sanity [POOL 20106]

Used drive : ASUS DRW-2014S1 Adapter: 0 ID: 0
Read mode : Secure with NO C2, accurate stream, disable cache
Read offset correction : 6
Overread into Lead-In and Lead-Out : No

Used output format : Internal WAV Routines
44.100 Hz; 16 Bit; Stereo

Other options :
Fill up missing offset samples with silence : Yes
Delete leading and trailing silent blocks : No
Installed external ASPI interface


Range status and errors
Selected range
Filename Y:\Музыка\Onslaught\1989 In Search Of Sanity\Onslaught - In Search of Sanity [POOL 20106].wav

Peak level 100.0 %
Range quality 100.0 %
CRC F9951440
Copy OK

No errors occured

End of status report


Куй
REM GENRE "Heavy Metal"
REM DATE 1989
REM DISCID 670E0009
REM COMMENT "ExactAudioCopy v0.95b4"
CATALOG 0000000000000
PERFORMER "Onslaught"
TITLE "In Search of Sanity [POOL 20106]"
FILE "Onslaught - In Search of Sanity [POOL 20106].flac" WAVE
TRACK 01 AUDIO
TITLE "Asylum"
PERFORMER "Onslaught"
INDEX 00 00:00:00
INDEX 01 00:00:37
TRACK 02 AUDIO
TITLE "In Search of Sanity"
PERFORMER "Onslaught"
INDEX 01 05:18:00
TRACK 03 AUDIO
TITLE "Shellshock"
PERFORMER "Onslaught"
INDEX 01 12:38:07
TRACK 04 AUDIO
TITLE "Lightning War"
PERFORMER "Onslaught"
INDEX 01 19:23:70
TRACK 05 AUDIO
TITLE "Let There Be Rock"
PERFORMER "Onslaught"
INDEX 01 26:20:15
TRACK 06 AUDIO
TITLE "Blood Upon the Ice"
PERFORMER "Onslaught"
INDEX 01 30:20:60
TRACK 07 AUDIO
TITLE "Welcome to Dying"
PERFORMER "Onslaught"
INDEX 00 38:41:27
INDEX 01 38:42:42
TRACK 08 AUDIO
TITLE "Powerplay"
PERFORMER "Onslaught"
INDEX 01 51:19:52
TRACK 09 AUDIO
TITLE "Confused"
PERFORMER "Onslaught"
INDEX 00 57:43:18
INDEX 01 57:43:45

_________________
Витасу до Даймонда как Алсу до Руссоса | При переразмещении - спрашивать разрешение!!


Last edited by iezuit on 11 Nov 2009, edited 1 time in total.

Top
 Profile  
 
 
PostPosted: 11 Nov 2009 
Metal Collector
User avatar
Joined: 16 Nov 2008
Posts: 1268
Lоcаtion: Химки
Age: 36
Name: Андрей
Ух, вот это релиз! Спасибо, очень люблю этот альбом!


Top
 Profile E-mail  
 
 
PostPosted: 11 Nov 2009 
Работнечег
User avatar
Joined: 28 Aug 2007
Posts: 6037
Lоcаtion: г. Москва
Age: 30
Name: Дима
Спасибо! Люблю сей коллектив! :true:


Top
 Profile E-mail  
 
 
PostPosted: 11 Nov 2009 
Прокъмитолист
User avatar
Joined: 12 Aug 2007
Posts: 6628
Lоcаtion: Санктъ-Петербуркъ
Age: 52
Name: Олекъ
i'm дико sorry... но куй здесь тоже не годицо :crazy:

_________________
прокъметол - это музыко, от которово есть прок (ы)


Top
 Profile  
 
 
PostPosted: 11 Nov 2009 
ыыыы
User avatar
Joined: 17 May 2009
Posts: 952
Lоcаtion: Пушкино, МО
Age: 41
Name: Дмитрий
Внимание! для корректного использования лося измените содержимого скачанного cue файла на следующее:

Годный Куй
REM GENRE "Heavy Metal"
REM DATE 1989
REM DISCID 670E0009
REM COMMENT "ExactAudioCopy v0.95b4"
CATALOG 0000000000000
PERFORMER "Onslaught"
TITLE "In Search of Sanity [POOL 20106]"
FILE "Onslaught - In Search of Sanity [POOL 20106].flac" WAVE
TRACK 01 AUDIO
TITLE "Asylum"
PERFORMER "Onslaught"
INDEX 00 00:00:00
INDEX 01 00:00:37
TRACK 02 AUDIO
TITLE "In Search of Sanity"
PERFORMER "Onslaught"
INDEX 01 05:18:00
TRACK 03 AUDIO
TITLE "Shellshock"
PERFORMER "Onslaught"
INDEX 01 12:38:07
TRACK 04 AUDIO
TITLE "Lightning War"
PERFORMER "Onslaught"
INDEX 01 19:23:70
TRACK 05 AUDIO
TITLE "Let There Be Rock"
PERFORMER "Onslaught"
INDEX 01 26:20:15
TRACK 06 AUDIO
TITLE "Blood Upon the Ice"
PERFORMER "Onslaught"
INDEX 01 30:20:60
TRACK 07 AUDIO
TITLE "Welcome to Dying"
PERFORMER "Onslaught"
INDEX 00 38:41:27
INDEX 01 38:42:42
TRACK 08 AUDIO
TITLE "Powerplay"
PERFORMER "Onslaught"
INDEX 01 51:19:52
TRACK 09 AUDIO
TITLE "Confused"
PERFORMER "Onslaught"
INDEX 00 57:43:18
INDEX 01 57:43:45

_________________
Витасу до Даймонда как Алсу до Руссоса | При переразмещении - спрашивать разрешение!!


Top
 Profile  
 
 
PostPosted: 11 Nov 2009 
Прокъмитолист
User avatar
Joined: 12 Aug 2007
Posts: 6628
Lоcаtion: Санктъ-Петербуркъ
Age: 52
Name: Олекъ
iezuit wrote:
Годный Куй

:drink:

_________________
прокъметол - это музыко, от которово есть прок (ы)


Top
 Profile  
 
 
PostPosted: 12 Nov 2009 
А может смените мне статус?..
User avatar
Joined: 17 Jan 2008
Posts: 897
Lоcаtion: Пенза
Age: 42
Name: Денис
Не знаю,чем японский пресс отличается от тогоже Лондонского..Но,всё равно спасибо! :thanx:


Top
 Profile  
 
 
PostPosted: 01 Sep 2011 
Персональный статус
User avatar
Joined: 11 May 2011
Posts: 421
Lоcаtion: Omsk
Age: 29
Name: Alexander
Отличный альбом! Гриммет на мой взгляд тут очень к месту, жаль что всего один альбом с ним записали, интересно было бы услышать их дальнейшее творчество.

Дмитрию iezuit'у спасибо огромное! :true:

_________________
Enigma, unholy, ungodly, commander of the regeneration
Insidious and caught, implored by disgrace
Inhumation... The burial of man
Confession... Unify all evil


Top
 Profile E-mail  
 
 
PostPosted: 01 Sep 2011 
Доктор энтомологии
User avatar
Joined: 22 Jan 2009
Posts: 9927
Lоcаtion: Даугавпилс
Age: 44
Name: Алексей
Мой любимый релиз группы - "Power From Hell": вот где мощь :thor: А воспоминаний то скока: :pray: В те года пара корешей к баптистам подалась, один из них сжег винил в окрестном лесу аки сатанинский артефакт :cry: П.С: были биты :nuu:


Top
 Profile  
 
 
PostPosted: 06 Sep 2013 
Хиппей (support team)
User avatar
Joined: 30 Jul 2007
Posts: 115032
Lоcаtion: Киев (Kyiv, UA)
Age: 46
Name: Andrey
Эх, красивейший мелодичный техно-трэшак :true: Спасибо Димке за разворошённую ностальгию :thanx:
Кстати, кто-то обратил внимание как этот альбом похож на релиз 90 года от Artillery (ну или наоборот, если брать в расчёт даты и год издания)? Вплоть до вокальной манеры. Хотя поначалу голос Гриммета можно принять и за женский =) Но, это явно только я так умею "слушать" :oops:

mirror: Narod

_________________


Top
 Profile E-mail  
 
 
PostPosted: 06 Sep 2013 
Хиппей (support team)
User avatar
Joined: 30 Jul 2007
Posts: 115032
Lоcаtion: Киев (Kyiv, UA)
Age: 46
Name: Andrey
Entomologist wrote:
В те года пара корешей к баптистам подалась, один из них сжег винил в окрестном лесу аки сатанинский артефакт :cry:

Онслоутист и антигринписец прям какой-то :esel:

_________________


Top
 Profile E-mail  
 
 
PostPosted: 15 Sep 2013 
Работнечег
User avatar
Joined: 28 Aug 2007
Posts: 6037
Lоcаtion: г. Москва
Age: 30
Name: Дима
Недавно у нас с концертом были, ребята отжигают не по-деццки :true:
phpBB [youtube]

phpBB [youtube]


Top
 Profile E-mail  
 
Display posts from previous:  Sort by  
Post new topic Reply to topic  [ 12 posts ] 

All times are UTC + 3 hours


Who is online

Users browsing this forum: No registered users and 1 guest


You cannot post new topics in this forum
You cannot reply to topics in this forum
You cannot edit your posts in this forum
You cannot delete your posts in this forum
You cannot post attachments in this forum

Search for:
Яндекс.Метрика
Powered by phpBB © 2000, 2002, 2005, 2007 phpBB Group