\m/ 80's metal \m/

Информационно-аналитический форум "80 см пыли" (In Search We Trust) "У нас никто никуда не спешит"
Me For You - http://me-4u.com
It is currently 21 Sep 2019

All times are UTC + 3 hours

Spoiler
Chat - temporary registration for foreign users (please leave your application here)







Post new topic Reply to topic  [ 9 posts ] 
Author Message
 
PostPosted: 27 Sep 2009 
Thrasher
User avatar
Joined: 07 Oct 2007
Posts: 2782
Lоcаtion: Russia, Moscow
Age: 35
Name: Drunk & Evil
Original Sin - 1986 - Sin Will Find You Out
Genre: Speed/Power Metal
Country: USA
Format: ape+cue+log+covers
Size: 265 Mb

Image
лог
Отчёт EAC об извлечении, выполненном 20. мая 2009, 13:30 для диска:
Sin Will Find You Out / Original Sin

Дисковод: _NEC DVD_RW ND-3550A Adapter: 0 ID: 0
Режим чтения: Достоверный (C2: нет, Точный поток: да, Отключение кэша: да)
Коррекция смещения при чтении: 48
Способность читать области Lead-in и Lead-out : Нет

Выходной формат: Внутренние WAV-операции
44.100 Гц; 16 бит; стерео

Другие параметры:
Заполнение пропущенных сэмплов тишиной : Да
Удаление блоков с тишиной в начале и конце : Нет
Встроенный Win32-интерфейс для Win NT/2000


Характеристики диапазона извлечения и сообщения об ошибках
Выбранный диапазон
Имя файла D:\1986 - Original Sin - Sin Will Find You Out\Sin Will Find You Out - Original Sin.wav

Пиковый уровень 100.0 %
Качество диапазона 100.0 %
CRC BF3DC4B1
Копирование... OK

Ошибок не произошло

Конец отчёта

Line-up:
Danielle Draconis - Vocal
Cythia Taylor - Guitar
Pandora Fox - Bass
Darlene Destructo - Drums


Tracklist:
1.Conjuration Of The Watcher
2.The Curse
3.To The Devil A Daughter
4.A Slice Of Finger (Instrumental)
5.Bitches From Hell
6.Succubus
7.Pandora's Box
8.Thunder War (Instrumental)
9.Enchantress Of Death
10.Disease Bombs

TPT: 33:41

mega

cue
REM GENRE Power/Speed
REM DATE 1986
REM DISCID 9007E50A
REM COMMENT "ExactAudioCopy v0.95b4"
PERFORMER "Sin Will Find You Out "
TITLE "Original Sin"
FILE "Sin Will Find You Out - Original Sin.wav" WAVE
TRACK 01 AUDIO
TITLE "Conjuration Of The Watcher"
PERFORMER "Sin Will Find You Out "
INDEX 01 00:00:00
TRACK 02 AUDIO
TITLE "The Curse"
PERFORMER "Sin Will Find You Out "
INDEX 01 04:28:60
TRACK 03 AUDIO
TITLE "To The Devil A Daughter"
PERFORMER "Sin Will Find You Out "
INDEX 01 08:14:35
TRACK 04 AUDIO
TITLE "A Slice Of Finger (Instrumental)"
PERFORMER "Sin Will Find You Out "
INDEX 01 11:24:45
TRACK 05 AUDIO
TITLE "Bitches From Hell"
PERFORMER "Sin Will Find You Out "
INDEX 01 12:18:60
TRACK 06 AUDIO
TITLE "Succubus"
PERFORMER "Sin Will Find You Out "
INDEX 01 15:04:74
TRACK 07 AUDIO
TITLE "Pandora's Box"
PERFORMER "Sin Will Find You Out "
INDEX 01 18:57:20
TRACK 08 AUDIO
TITLE "Thunder War (Instrumental)"
PERFORMER "Sin Will Find You Out "
INDEX 01 22:27:37
TRACK 09 AUDIO
TITLE "Enchantress Of Death"
PERFORMER "Sin Will Find You Out "
INDEX 01 24:24:35
TRACK 10 AUDIO
TITLE "Disease Bombs"
PERFORMER "Sin Will Find You Out "
INDEX 01 28:12:07

_________________
ВОДКА, БАБЫ И БЛЮЗ / 40° till death... :bodun:
One time we saw some hookers, but when we got closer, we realised it was Mötley Crüe. ©


Top
 Profile  
 
 
PostPosted: 27 Sep 2009 
Хиппей (support team)
User avatar
Joined: 30 Jul 2007
Posts: 114411
Lоcаtion: Киев (Kyiv, UA)
Age: 46
Name: Andrey
:true:

зы. Лось стянут с moole.ru (док Валеры), а до это кто знает откуда... :vic:

_________________


Top
 Profile E-mail  
 
 
PostPosted: 28 Sep 2009 
Power Metal Maniac
User avatar
Joined: 09 Aug 2008
Posts: 6858
Lоcаtion: Москва
Age: 41
Name: Егор
Вау, давно хотел! Ведь это один из многочисленных фэйковых групп от Cobra Records, в которых участвовал David DeFeis, а несколько вещей много лет спустя были перезаписаны им для свой группы Virgin Steele.
:thanx: :true:

_________________
Long Live Metal!


Top
 Profile  
 
 
PostPosted: 14 Nov 2010 
Пионэръ
User avatar
Joined: 20 Jun 2010
Posts: 40
Lоcаtion: Москоw-Сити
Name: Димон
уххх.. :meloman: биг данке!! :true:

_________________
)†/_'†º¨ł


Top
 Profile  
 
 
PostPosted: 14 Nov 2010 
спирт 100%
User avatar
Joined: 22 Sep 2008
Posts: 4469
Age: 48
Name: Саня
:true: СПАСИБО! :thanx:


Top
 Profile  
 
 
PostPosted: 15 Nov 2010 
Доктор энтомологии
User avatar
Joined: 22 Jan 2009
Posts: 9887
Lоcаtion: Даугавпилс
Age: 44
Name: Алексей
:thanx: :true:


Top
 Profile  
 
 
PostPosted: 12 Dec 2014 
Трешер
User avatar
Joined: 25 Feb 2011
Posts: 1115
Lоcаtion: Харьков
Age: 43
Name: Aleksandr
Все не работает залейте у кого есть :(


Top
 Profile E-mail  
 
 
PostPosted: 12 Dec 2014 
Генеральный thrasher
User avatar
Joined: 03 Oct 2008
Posts: 3733
Lоcаtion: Ханты-Мансийский АО
Age: 44
Name: Сергей
Здесь - http://forum.darksage.ru/forum/80-19955-1


Top
 Profile  
 
 
PostPosted: 12 Dec 2014 
Трешер
User avatar
Joined: 25 Feb 2011
Posts: 1115
Lоcаtion: Харьков
Age: 43
Name: Aleksandr
Спасибо Сергей , у меня остался вот этот рип - http://www.discogs.com/release/3026869 диск вчера отправил в индию но так сграбил на всякий случай , этот рип я так понял с винила .

А нет, не с винила то рип а с такого же диска как у меня был :(

Original Sin - 1986 тоже самое что было тут выложено ранее.


Top
 Profile E-mail  
 
Display posts from previous:  Sort by  
Post new topic Reply to topic  [ 9 posts ] 

All times are UTC + 3 hours


Who is online

Users browsing this forum: No registered users and 1 guest


You cannot post new topics in this forum
You cannot reply to topics in this forum
You cannot edit your posts in this forum
You cannot delete your posts in this forum
You cannot post attachments in this forum

Search for:
Яндекс.Метрика
Powered by phpBB © 2000, 2002, 2005, 2007 phpBB Group