\m/ 80's metal \m/

Информационно-аналитический форум "80 см пыли" (In Search We Trust) "У нас никто никуда не спешит"
Me For You - http://me-4u.com
It is currently 20 Jul 2019

All times are UTC + 3 hours

Spoiler
Chat - temporary registration for foreign users (please leave your application here)







Post new topic Reply to topic  [ 29 posts ]  Go to page 1, 2  Next
Author Message
 
PostPosted: 20 Jan 2016 
5-speed satisfactor
User avatar
Joined: 16 Feb 2009
Posts: 3738
Lоcаtion: New York, USA
Age: 41
Name: Leonid
:pardon: , но времени на оформление нет.

Спасибо Роме из Парижа за первопресс.

10 дней у вас.

Image

    1. Four Play/Hard to the Core - 04:53
    2. High Treason - 02:57
    3. For the Love of Money - 05:09
    4. Killer Elite - 04:05
    5. Desperate to Survive - 05:56
    6. Methods of Madness - 03:27
    7. Too Wild to Tame - 04:44
    8. Always on the Run - 03:32
    9. Panic in the Streets - 05:14

    TPT: 39:57

https://www.wetransfer.com/downloads/5f ... 859/62b3ef




mirror: iFolder l Narod l M-Cloud

log
CUERipper v2.1.5 Copyright (C) 2008-13 Grigory Chudov

EAC extraction logfile from 19. January 2016, 20:27

Obsession / Methods Of Madness

Used drive : TSSTcorp CDDVDW SH-224DB Adapter: 1 ID: 0

Read mode : Secure
Utilize accurate stream : Yes
Defeat audio cache : Yes
Make use of C2 pointers : No

Read offset correction : 6
Overread into Lead-In and Lead-Out : No
Fill up missing offset samples with silence : Yes
Delete leading and trailing silent blocks : No
Null samples used in CRC calculations : Yes
Used interface : Native Win32 interface for Win NT & 2000

Used output format : Internal WAV Routines
Sample format : 44.100 Hz; 16 Bit; Stereo


TOC of the extracted CD

Track | Start | Length | Start sector | End sector
---------------------------------------------------------
1 | 0:00.00 | 4:54.07 | 0 | 22056
2 | 4:54.07 | 2:56.73 | 22057 | 35329
3 | 7:51.05 | 5:09.17 | 35330 | 58521
4 | 13:00.22 | 4:05.15 | 58522 | 76911
5 | 17:05.37 | 5:55.10 | 76912 | 103546
6 | 23:00.47 | 3:26.50 | 103547 | 119046
7 | 26:27.22 | 4:44.18 | 119047 | 140364
8 | 31:11.40 | 3:31.55 | 140365 | 156244
9 | 34:43.20 | 5:14.72 | 156245 | 179866


Range status and errors

Selected range

Filename d:\Users\rom.hammer\Music\Obsession - Methods Of Madness.wav

Peak level 100.0 %
Range quality 100.0 %
Copy CRC EFE435FD
Copy OK

No errors occurred


AccurateRip summary

Track 1 accurately ripped (confidence 2) [A09F4AD2]
Track 2 accurately ripped (confidence 2) [C275E628]
Track 3 accurately ripped (confidence 2) [6DAD3239]
Track 4 accurately ripped (confidence 2) [A406A6DA]
Track 5 accurately ripped (confidence 2) [DFCE1D2A]
Track 6 accurately ripped (confidence 2) [AE6B9446]
Track 7 accurately ripped (confidence 2) [E9300C42]
Track 8 accurately ripped (confidence 2) [D4C78754]
Track 9 accurately ripped (confidence 2) [12F61B65]

All tracks accurately ripped

End of status report

cue
REM DISCID 83095E09
PERFORMER "Obsession"
TITLE "Methods Of Madness"
REM DATE 1987
REM GENRE "Heavy Metal"
REM COMMENT "YEAR: 1987 ID3G: 137"
FILE "Obsession - Methods Of Madness.wav" WAVE
TRACK 01 AUDIO
PERFORMER "Obsession"
TITLE "Four Play/Hard To The Core"
INDEX 01 00:00:00
TRACK 02 AUDIO
PERFORMER "Obsession"
TITLE "High Treason"
INDEX 01 04:54:07
TRACK 03 AUDIO
PERFORMER "Obsession"
TITLE "For The Love Of Money"
INDEX 01 07:51:05
TRACK 04 AUDIO
PERFORMER "Obsession"
TITLE "Killer Elite"
INDEX 01 13:00:22
TRACK 05 AUDIO
PERFORMER "Obsession"
TITLE "Desperate To Survive"
INDEX 00 17:03:35
INDEX 01 17:05:37
TRACK 06 AUDIO
PERFORMER "Obsession"
TITLE "Methods Of Madness"
INDEX 01 23:00:47
TRACK 07 AUDIO
PERFORMER "Obsession"
TITLE "Too Wild To Tame"
INDEX 01 26:27:22
TRACK 08 AUDIO
PERFORMER "Obsession"
TITLE "Always On The Run"
INDEX 01 31:11:40
TRACK 09 AUDIO
PERFORMER "Obsession"
TITLE "Panic In The Streets"
INDEX 00 34:41:15
INDEX 01 34:43:20

_________________
Death rules! Metal to all who oppose!


Last edited by Scatterbrain on 15 Oct 2017, edited 4 times in total.
Дооформлено малость


Top
 Profile  
 
 
PostPosted: 20 Jan 2016 
Я набрал 1000 сообщений!
Joined: 21 Nov 2009
Posts: 1414
Lоcаtion: praga
Age: 48
Name: Сергей
:true: :thanx:


Top
 Profile E-mail  
 
 
PostPosted: 20 Jan 2016 
Я набрал 1000 сообщений!
Joined: 21 Nov 2009
Posts: 1414
Lоcаtion: praga
Age: 48
Name: Сергей
Еще б их ер-83 в лоссике найти! :meloman:


Top
 Profile E-mail  
 
 
PostPosted: 20 Jan 2016 
А может смените мне статус?..
Joined: 03 Jul 2009
Posts: 877
Lоcаtion: Serbia
Name: Laki
:thanx:



Marshall Law, Metal Blade 1998

Rusfolder


Top
 Profile E-mail  
 
 
PostPosted: 20 Jan 2016 
Я набрал 1000 сообщений!
Joined: 21 Nov 2009
Posts: 1414
Lоcаtion: praga
Age: 48
Name: Сергей
:thanx: :meloman: :dance: :thanx:


Top
 Profile E-mail  
 
 
PostPosted: 20 Jan 2016 
5-speed satisfactor
User avatar
Joined: 16 Feb 2009
Posts: 3738
Lоcаtion: New York, USA
Age: 41
Name: Leonid
На Metal Blade от 1998го года издания или split with Witchkiller on SPV или винил?

_________________
Death rules! Metal to all who oppose!


Top
 Profile  
 
 
PostPosted: 20 Jan 2016 
5-speed satisfactor
User avatar
Joined: 16 Feb 2009
Posts: 3738
Lоcаtion: New York, USA
Age: 41
Name: Leonid
Какая скучная группа..... етить твою жилку. Я пообщался с покупателем, который мне как раз Attacker первопресс и выложил. Разговорились. Спросил у меня, есть ли Obsession. Насколько я помнил Marshall Law был средней паршивости. Насколько Witchkiller был ярким и настолько Obsession казалась унылой. Другого альбома не слышал. Но он мне сказал, что на полнометражках есть 4 офигенные спидухи. Ну я порыскал в рутрекере. Нашел переиздания. Затем обратился к Роме, если у него не завалялся первопресс. Завалялся. И вот сейчас прослушал. Скукота. Моменты есть. Но их искать надо. Искать выпиливать и создать один короткий трек просто для прослушки. Вот токо спидухи-то хде?

PS. Роме всё равно спасибо. :thanx:

_________________
Death rules! Metal to all who oppose!


Top
 Profile  
 
 
PostPosted: 20 Jan 2016 
А может смените мне статус?..
Joined: 03 Jul 2009
Posts: 877
Lоcаtion: Serbia
Name: Laki
Leonid post SPV split Obsession Witchkiller if you have,please. Marshall Law is their best release.

Do you have Hawaii Natives are Restless spv?


Top
 Profile E-mail  
 
 
PostPosted: 21 Jan 2016 
Хиппей (support team)
User avatar
Joined: 30 Jul 2007
Posts: 113561
Lоcаtion: Киев (Kyiv, UA)
Age: 46
Name: Andrey
:thanx:

Marshall Law, Metal Blade 1998

Rusfolder

:thanx:

Image Image

mirror: iFolder l Narod l M-Cloud

Image Image

log
EAC extrae el archivo del registro desde 21. Enero 2004, 19:40 para el CD
Obsession / Marshall Law

Unidad Usada: SONY DVD-ROM DDU1612 Adapter: 1 ID: 1
Modo de Lectura: Seguro con C2, sin Flujo Preciso, desactivando Cache
Correcciуn Combinada de Lectura/Escritura del Balance: 0
Leer por encima de la sesiуn inicial y final del CD : No

Usar Formato de Salida: C:\Documents and Settings\keith\Mis documentos\Mis eBooks\MAC.exe (Compresor Monkey's Audio (menor pйrdida))
High Lossless Compression
Opciones adicionales de la Linea de comandos: %l--alt-preset 128%l%h--alt-preset standard%h %s %d

Otras Opciones:
Rellenar muestras pйrdidas del balance con silencios : Si
Eliminar bloques de silencios al principio y final : No
Interfaz Win32 para Windows (NT/2000/XP)


Lнmite erroneo
Seleccionar Lнmite
Nombre de archivo C:\Documents and Settings\keith\Mis documentos\EAC\obsession\CDImage.wav

Nivel de pico 99.2 %
Calidad de lнmite 100.0 %
CRC 5EBAEF28
Copia realizada

No existen errores

Fin de la informaciуn de estado

cue
PERFORMER "Obsession"
TITLE "Marshall Law"
FILE "CDImage.ape" WAVE
TRACK 01 AUDIO
TITLE "Only The Strong Will Survive"
PERFORMER "Obsession"
INDEX 01 00:00:00
TRACK 02 AUDIO
TITLE "Hatred Unto Death"
PERFORMER "Obsession"
INDEX 00 03:23:19
INDEX 01 03:23:25
TRACK 03 AUDIO
TITLE "Execution"
PERFORMER "Obsession"
INDEX 01 10:21:20
TRACK 04 AUDIO
TITLE "Marshall Law"
PERFORMER "Obsession"
INDEX 01 15:14:20

_________________


Top
 Profile E-mail  
 
 
PostPosted: 21 Jan 2016 
Power Metal Maniac
User avatar
Joined: 09 Aug 2008
Posts: 6771
Lоcаtion: Москва
Age: 41
Name: Егор
миник самый клёвый у Obsession, там спидухи есть, а вот позже - коммерциализация и торможение( Поздних альбомов, правда, так и щне слушал.

_________________
Long Live Metal!


Top
 Profile  
 
 
PostPosted: 21 Jan 2016 
Хиппей (support team)
User avatar
Joined: 30 Jul 2007
Posts: 113561
Lоcаtion: Киев (Kyiv, UA)
Age: 46
Name: Andrey
EG Power wrote:
миник самый клёвый у Obsession, там спидухи есть

Первая и последняя песни понравились на минике - Judas Priest style :meloman:

_________________


Top
 Profile E-mail  
 
 
PostPosted: 21 Jan 2016 
Хиппей (support team)
User avatar
Joined: 30 Jul 2007
Posts: 113561
Lоcаtion: Киев (Kyiv, UA)
Age: 46
Name: Andrey
metaleonid wrote:
Obsession - [USA] - 1987 - Methods Of Madness (японский первопресс/japanese 1st press]


Хороший альбом. Из 9 композиций 6 хитов - более чем толковый результат. А если учесть, что я обожаю вокалистов и музыку в манерах таких групп как Savatage, Metal Church и вообще техничный US Power Metal, то альбом очень понравился :meloman:

7/10

Скоростей нету? Ну, да, маловато, но они есть. И саунд чуть потяжелее хотелось бы. Но это был бы уже, например, Vicious Rumors https://www.youtube.com/watch?v=a4VK6UU1QHI :pardon:
Зато, уже не гумно-Аттак попсовый :dance:

_________________


Top
 Profile E-mail  
 
 
PostPosted: 21 Jan 2016 
Хиппей (support team)
User avatar
Joined: 30 Jul 2007
Posts: 113561
Lоcаtion: Киев (Kyiv, UA)
Age: 46
Name: Andrey
А сканов к полноформатнику оригинальных нету? Чисто авось, случайно :vic:

_________________


Top
 Profile E-mail  
 
 
PostPosted: 21 Jan 2016 
5-speed satisfactor
User avatar
Joined: 16 Feb 2009
Posts: 3738
Lоcаtion: New York, USA
Age: 41
Name: Leonid
Рома не сканировал. Просить не буду. Итак он до хрена редкостей дает. Сканы есть на трекере именно от этого альбома. И на дискогз.

_________________
Death rules! Metal to all who oppose!


Top
 Profile  
 
 
PostPosted: 21 Jan 2016 
Хиппей (support team)
User avatar
Joined: 30 Jul 2007
Posts: 113561
Lоcаtion: Киев (Kyiv, UA)
Age: 46
Name: Andrey
metaleonid wrote:
Сканы есть на трекере именно от этого альбома.

Схожу спиндюрю :thanx:

Возникает тогда законный вопрос - а зачем же лось сюда нужен был, если он и там спокойно есть? :vic:

_________________


Top
 Profile E-mail  
 
 
PostPosted: 21 Jan 2016 
Хиппей (support team)
User avatar
Joined: 30 Jul 2007
Posts: 113561
Lоcаtion: Киев (Kyiv, UA)
Age: 46
Name: Andrey
Лёнь, а точно там :arrow: http://rutracker.org/forum/viewtopic.php?t=1353669 такое же издание? :vic:

_________________


Top
 Profile E-mail  
 
 
PostPosted: 21 Jan 2016 
Я набрал 1000 сообщений!
Joined: 21 Nov 2009
Posts: 1414
Lоcаtion: praga
Age: 48
Name: Сергей
metaleonid wrote:
Сканы есть на трекере именно от этого альбома.

Схожу спиндюрю :thanx:

Возникает тогда законный вопрос - а зачем же лось сюда нужен был, если он и там спокойно есть? :vic:

А там только жуткое переиздание.


Top
 Profile E-mail  
 
 
PostPosted: 21 Jan 2016 
Хиппей (support team)
User avatar
Joined: 30 Jul 2007
Posts: 113561
Lоcаtion: Киев (Kyiv, UA)
Age: 46
Name: Andrey
sin2 wrote:
А там только жуткое переиздание.

Так. Давайте всё же разберёмся :kro:
http://rutracker.org/forum/viewtopic.php?t=1353669 - здесь точно не японец-пони-каньон с американскими бонусами? :lloo:

_________________


Top
 Profile E-mail  
 
 
PostPosted: 22 Jan 2016 
5-speed satisfactor
User avatar
Joined: 16 Feb 2009
Posts: 3738
Lоcаtion: New York, USA
Age: 41
Name: Leonid
Там нет первопресса. Там 2 переиздания этого альбома. Один из них идет со сканами первопресса, по-видимому, спиз-ных с дискогз. Переиздания отличаются смещением, но не более того.

_________________
Death rules! Metal to all who oppose!


Top
 Profile  
 
 
PostPosted: 22 Jan 2016 
Хиппей (support team)
User avatar
Joined: 30 Jul 2007
Posts: 113561
Lоcаtion: Киев (Kyiv, UA)
Age: 46
Name: Andrey
metaleonid wrote:
Один из них идет со сканами первопресса, по-видимому, спиз-ных с дискогз.

Не, ну это ж несурьёзно :pardon:

_________________


Top
 Profile E-mail  
 
Display posts from previous:  Sort by  
Post new topic Reply to topic  [ 29 posts ]  Go to page 1, 2  Next

All times are UTC + 3 hours


Who is online

Users browsing this forum: No registered users and 1 guest


You cannot post new topics in this forum
You cannot reply to topics in this forum
You cannot edit your posts in this forum
You cannot delete your posts in this forum
You cannot post attachments in this forum

Search for:
Яндекс.Метрика
cron
Powered by phpBB © 2000, 2002, 2005, 2007 phpBB Group