\m/ 80's metal \m/

Информационно-аналитический форум "80 см пыли" (In Search We Trust) "У нас никто никуда не спешит"
Me For You - http://me-4u.com
It is currently 24 Oct 2019

All times are UTC + 3 hours

Spoiler
Chat - temporary registration for foreign users (please leave your application here)







Post new topic Reply to topic  [ 99 posts ]  Go to page Previous  1, 2, 3, 4, 5
Author Message
 
PostPosted: 02 Apr 2009 
Персональный статус
Joined: 30 Aug 2008
Posts: 337
Lоcаtion: Львов
Age: 46
Name: .Алексей
> Осталось найти: | Still looking:
Outrage - 2002 - 24-7
Outrage - 2013 - Outraged


Top
 Profile E-mail  
 
 
PostPosted: 18 Oct 2017 
Хиппей (support team)
User avatar
Joined: 30 Jul 2007
Posts: 115032
Lоcаtion: Киев (Kyiv, UA)
Age: 46
Name: Andrey
Outrage - 1993 - Spit [flac]

Image Image Image

mirror: Depos l Narod l M-Cloud l Drop

Ага, и эта группа не удержалась и вдарилась в альтернативку, стонер некий и чуть индастриэла.
Но альбом всё равно весьма достойный и хитовый. Местами :dance:

5+/10

Image Image Image

Image
Image

log
Exact Audio Copy V0.99 prebeta 5 from 4. May 2009

Отчёт EAC об извлечении, выполненном 3. ноября 2012, 16:25

OUTRAGE / Spit

Дисковод: MATSHITADVD-RAM UJ8A0AS Adapter: 0 ID: 1

Режим чтения : Достоверность
Использование точного потока : Да
Отключение кэша аудио : Да
Использование указателей C2 : Нет

Коррекция смещения при чтении : 102
Способность читать области Lead-in и Lead-out : Нет
Заполнение пропущенных сэмплов тишиной : Да
Удаление блоков с тишиной в начале и конце : Нет
При вычислениях CRC использовались нулевые сэмплы : Да
Интерфейс : Встроенный Win32-интерфейс для Win NT/2000

Выходной формат : Пользовательский кодировщик
Выбранный битрейт : 1024 kBit/s
Качество : Высокий
Добавление ID3-тэга : Нет
Утилита сжатия : C:\Program Files\Exact Audio Copy\FLAC\FLAC.EXE
Дополнительные параметры : -6 -V -T "ARTIST=%a" -T "TITLE=%t" -T "ALBUM=%g" -T "DATE=%y" -T "TRACKNUMBER=%n" -T "GENRE=%m" -T "COMMENT=%e" %s -o %d


TOC извлечённого CD

Трек | Старт | Длительность | Начальный сектор | Конечный сектор
---------------------------------------------------------------------
1 | 0:00.00 | 3:29.37 | 0 | 15711
2 | 3:29.37 | 4:43.15 | 15712 | 36951
3 | 8:12.52 | 3:30.08 | 36952 | 52709
4 | 11:42.60 | 6:25.32 | 52710 | 81616
5 | 18:08.17 | 3:52.50 | 81617 | 99066
6 | 22:00.67 | 5:38.30 | 99067 | 124446
7 | 27:39.22 | 4:44.05 | 124447 | 145751
8 | 32:23.27 | 4:34.50 | 145752 | 166351
9 | 36:58.02 | 5:50.45 | 166352 | 192646
10 | 42:48.47 | 6:13.00 | 192647 | 220621


Характеристики диапазона извлечения и сообщения об ошибках

Выбранный диапазон

Имя файла C:\Users\эксперт\Music\OUTRAGE - Spit.wav

Пиковый уровень 100.0 %
Качество диапазона 100.0 %
CRC копии 5CC5D6B1
Копирование... OK

Ошибок не произошло


AccurateRip: сводка

Трек 1 нет в базе данных
Трек 2 нет в базе данных
Трек 3 нет в базе данных
Трек 4 нет в базе данных
Трек 5 нет в базе данных
Трек 6 нет в базе данных
Трек 7 нет в базе данных
Трек 8 нет в базе данных
Трек 9 нет в базе данных
Трек 10 нет в базе данных

Ни одного трека нет в базе AccurateRip

Конец отчёта

cue
REM GENRE "Thrash Metal"
REM DATE 1993
REM DISCID 690B7D0A
REM COMMENT "ExactAudioCopy v0.99pb5"
PERFORMER "OUTRAGE"
TITLE "Spit"
FILE "OUTRAGE - Spit.flac" WAVE
TRACK 01 AUDIO
TITLE "Mr. Rightman"
PERFORMER "OUTRAGE"
INDEX 01 00:00:00
TRACK 02 AUDIO
TITLE "Faith"
PERFORMER "OUTRAGE"
INDEX 01 03:29:37
TRACK 03 AUDIO
TITLE "To You"
PERFORMER "OUTRAGE"
INDEX 01 08:12:52
TRACK 04 AUDIO
TITLE "The Smoke"
PERFORMER "OUTRAGE"
INDEX 01 11:42:60
TRACK 05 AUDIO
TITLE "How Bad ?"
PERFORMER "OUTRAGE"
INDEX 01 18:08:17
TRACK 06 AUDIO
TITLE "The Key"
PERFORMER "OUTRAGE"
INDEX 00 21:59:40
INDEX 01 22:00:67
TRACK 07 AUDIO
TITLE "Never Make The Same"
PERFORMER "OUTRAGE"
INDEX 01 27:39:22
TRACK 08 AUDIO
TITLE "Live My Life"
PERFORMER "OUTRAGE"
INDEX 00 32:20:35
INDEX 01 32:23:27
TRACK 09 AUDIO
TITLE "Inner Strength"
PERFORMER "OUTRAGE"
INDEX 01 36:58:02
TRACK 10 AUDIO
TITLE "Eagle"
PERFORMER "OUTRAGE"
INDEX 01 42:48:47

_________________


Top
 Profile E-mail  
 
 
PostPosted: 18 Oct 2017 
консэрваторъ
User avatar
Joined: 11 Aug 2007
Posts: 17327
Lоcаtion: Псков
Age: 45
Name: Сергей
Scatterbrain wrote:
Это тебя порвёт точно

Вот, блинасич, заинтриговали... :thanx:
Scatterbrain wrote:
Outrage - Great Blue

Хороший эпик, поставил группу в очередь... в самый конец пока... :oops:

_________________
THRASH 'EM ALL


Top
 Profile E-mail  
 
 
PostPosted: 18 Oct 2017 
Доктор энтомологии
User avatar
Joined: 22 Jan 2009
Posts: 9927
Lоcаtion: Даугавпилс
Age: 44
Name: Алексей
Забавная группа, чего ее ругать, с японическим таким взглядом на бэй-эрею Слушаются прикольно, почти все альбомы :dance:


Top
 Profile  
 
 
PostPosted: 18 Oct 2017 
Хиппей (support team)
User avatar
Joined: 30 Jul 2007
Posts: 115032
Lоcаtion: Киев (Kyiv, UA)
Age: 46
Name: Andrey
Outrage - 1995 - Life Until Deaf [flac]

ImageImage Image Image

mirror: Depos l Narod l M-Cloud l Drop

Nu Metal-хрень :(

3/10

Image Image Image Image Image

Image Image Image Image Image

log
Exact Audio Copy V0.99 prebeta 5 from 4. May 2009

Отчёт EAC об извлечении, выполненном 17. января 2014, 15:30

OUTRAGE / Life Until Deaf

Дисковод: MATSHITADVD-RAM UJ8A0AS Adapter: 0 ID: 1

Режим чтения : Достоверность
Использование точного потока : Да
Отключение кэша аудио : Да
Использование указателей C2 : Нет

Коррекция смещения при чтении : 102
Способность читать области Lead-in и Lead-out : Нет
Заполнение пропущенных сэмплов тишиной : Да
Удаление блоков с тишиной в начале и конце : Нет
При вычислениях CRC использовались нулевые сэмплы : Да
Интерфейс : Встроенный Win32-интерфейс для Win NT/2000

Выходной формат : Пользовательский кодировщик
Выбранный битрейт : 1024 kBit/s
Качество : Высокий
Добавление ID3-тэга : Нет
Утилита сжатия : C:\Program Files\Exact Audio Copy\FLAC\FLAC.EXE
Дополнительные параметры : -6 -V -T "ARTIST=%a" -T "TITLE=%t" -T "ALBUM=%g" -T "DATE=%y" -T "TRACKNUMBER=%n" -T "GENRE=%m" -T "COMMENT=%e" %s -o %d


TOC извлечённого CD

Трек | Старт | Длительность | Начальный сектор | Конечный сектор
---------------------------------------------------------------------
1 | 0:00.00 | 4:59.17 | 0 | 22441
2 | 4:59.17 | 5:42.35 | 22442 | 48126
3 | 10:41.52 | 5:57.10 | 48127 | 74911
4 | 16:38.62 | 4:42.45 | 74912 | 96106
5 | 21:21.32 | 8:45.68 | 96107 | 135549
6 | 30:07.25 | 3:08.57 | 135550 | 149706
7 | 33:16.07 | 6:40.00 | 149707 | 179706
8 | 39:56.07 | 2:53.53 | 179707 | 192734
9 | 42:49.60 | 3:35.62 | 192735 | 208921
10 | 46:25.47 | 4:38.30 | 208922 | 229801
11 | 51:04.02 | 5:25.28 | 229802 | 254204
12 | 56:29.30 | 0:30.47 | 254205 | 256501


Характеристики диапазона извлечения и сообщения об ошибках

Выбранный диапазон

Имя файла C:\Users\эксперт\Music\OUTRAGE - Life Until Deaf.wav

Пиковый уровень 100.0 %
Качество диапазона 100.0 %
CRC копии EC0482CE
Копирование... OK

Ошибок не произошло


AccurateRip: сводка

Трек 1 точность не определена (достоверность 2) [959001E4], AccurateRip вернул [F27D002B]
Трек 2 точность не определена (достоверность 3) [97900CCC], AccurateRip вернул [36747821]
Трек 3 точность не определена (достоверность 3) [3942F33F], AccurateRip вернул [E823145A]
Трек 4 точность не определена (достоверность 3) [B1F83003], AccurateRip вернул [3516E460]
Трек 5 точность не определена (достоверность 3) [D75FEED4], AccurateRip вернул [B29B6909]
Трек 6 точность не определена (достоверность 3) [97A4FE13], AccurateRip вернул [6F763A57]
Трек 7 точность не определена (достоверность 3) [224B305F], AccurateRip вернул [D04FAB06]
Трек 8 точность не определена (достоверность 3) [E23E3009], AccurateRip вернул [5DD1C4A9]
Трек 9 точность не определена (достоверность 3) [A40FD6B9], AccurateRip вернул [13BDB65E]
Трек 10 точность не определена (достоверность 3) [62A914A4], AccurateRip вернул [6023A9B0]
Трек 11 точность не определена (достоверность 3) [B62F57A8], AccurateRip вернул [3BA345D1]
Трек 12 точность не определена (достоверность 3) [86A0B514], AccurateRip вернул [ED7BB0FF]

Ни один трек не прошёл проверки на точность
В вашей базе может быть иной вариант штамповки диска

Конец отчёта

cue
REM GENRE "Thrash Metal"
REM DATE 1995
REM DISCID AB0D5C0C
REM COMMENT "ExactAudioCopy v0.99pb5"
PERFORMER "OUTRAGE"
TITLE "Life Until Deaf"
FILE "OUTRAGE - Life Until Deaf.flac" WAVE
TRACK 01 AUDIO
TITLE "Megalomania"
PERFORMER "OUTRAGE"
INDEX 01 00:00:00
TRACK 02 AUDIO
TITLE "Vanishing Fully From The World"
PERFORMER "OUTRAGE"
INDEX 01 04:59:17
TRACK 03 AUDIO
TITLE "Undertow"
PERFORMER "OUTRAGE"
INDEX 01 10:41:52
TRACK 04 AUDIO
TITLE "Midnite Carnival"
PERFORMER "OUTRAGE"
INDEX 01 16:38:62
TRACK 05 AUDIO
TITLE "In Union With Earth"
PERFORMER "OUTRAGE"
INDEX 01 21:21:32
TRACK 06 AUDIO
TITLE "Echo"
PERFORMER "OUTRAGE"
INDEX 01 30:07:25
TRACK 07 AUDIO
TITLE "Draggin' Me Down (Fear Is)"
PERFORMER "OUTRAGE"
INDEX 01 33:16:07
TRACK 08 AUDIO
TITLE "You Suck"
PERFORMER "OUTRAGE"
INDEX 01 39:56:07
TRACK 09 AUDIO
TITLE "Concrete Mirror"
PERFORMER "OUTRAGE"
INDEX 01 42:49:60
TRACK 10 AUDIO
TITLE "Agument"
PERFORMER "OUTRAGE"
INDEX 01 46:25:47
TRACK 11 AUDIO
TITLE "Live Until You Die"
PERFORMER "OUTRAGE"
INDEX 01 51:04:02
TRACK 12 AUDIO
TITLE "Popcorn Song"
PERFORMER "OUTRAGE"
INDEX 00 55:36:35
INDEX 01 56:29:30

_________________


Top
 Profile E-mail  
 
 
PostPosted: 18 Oct 2017 
Хиппей (support team)
User avatar
Joined: 30 Jul 2007
Posts: 115032
Lоcаtion: Киев (Kyiv, UA)
Age: 46
Name: Andrey
Outrage - 1997 - Who We Are [flac]

ImageImage Image

mirror: Depos l Narod l M-Cloud l Drop

52 минуты японского звукового аутизма омывали мои ухи :(

2/10

Image Image Image

Image Image Image

log
Exact Audio Copy V0.99 prebeta 5 from 4. May 2009

Отчёт EAC об извлечении, выполненном 3. ноября 2012, 15:14

OUTRAGE / Who We Are

Дисковод: MATSHITADVD-RAM UJ8A0AS Adapter: 0 ID: 1

Режим чтения : Достоверность
Использование точного потока : Да
Отключение кэша аудио : Да
Использование указателей C2 : Нет

Коррекция смещения при чтении : 102
Способность читать области Lead-in и Lead-out : Нет
Заполнение пропущенных сэмплов тишиной : Да
Удаление блоков с тишиной в начале и конце : Нет
При вычислениях CRC использовались нулевые сэмплы : Да
Интерфейс : Встроенный Win32-интерфейс для Win NT/2000

Выходной формат : Пользовательский кодировщик
Выбранный битрейт : 1024 kBit/s
Качество : Высокий
Добавление ID3-тэга : Нет
Утилита сжатия : C:\Program Files\Exact Audio Copy\FLAC\FLAC.EXE
Дополнительные параметры : -6 -V -T "ARTIST=%a" -T "TITLE=%t" -T "ALBUM=%g" -T "DATE=%y" -T "TRACKNUMBER=%n" -T "GENRE=%m" -T "COMMENT=%e" %s -o %d


TOC извлечённого CD

Трек | Старт | Длительность | Начальный сектор | Конечный сектор
---------------------------------------------------------------------
1 | 0:00.00 | 3:50.27 | 0 | 17276
2 | 3:50.27 | 4:06.20 | 17277 | 35746
3 | 7:56.47 | 4:15.55 | 35747 | 54926
4 | 12:12.27 | 6:33.03 | 54927 | 84404
5 | 18:45.30 | 3:26.60 | 84405 | 99914
6 | 22:12.15 | 4:45.25 | 99915 | 121314
7 | 26:57.40 | 4:00.25 | 121315 | 139339
8 | 30:57.65 | 2:12.00 | 139340 | 149239
9 | 33:09.65 | 4:55.37 | 149240 | 171401
10 | 38:05.27 | 1:49.15 | 171402 | 179591
11 | 39:54.42 | 5:43.33 | 179592 | 205349
12 | 45:38.00 | 6:17.25 | 205350 | 233649


Характеристики диапазона извлечения и сообщения об ошибках

Выбранный диапазон

Имя файла C:\Users\эксперт\Music\OUTRAGE - Who We Are.wav

Пиковый уровень 98.7 %
Качество диапазона 100.0 %
CRC копии ADEB0B92
Копирование... OK

Ошибок не произошло


AccurateRip: сводка

Трек 1 нет в базе данных
Трек 2 нет в базе данных
Трек 3 нет в базе данных
Трек 4 нет в базе данных
Трек 5 нет в базе данных
Трек 6 нет в базе данных
Трек 7 нет в базе данных
Трек 8 нет в базе данных
Трек 9 нет в базе данных
Трек 10 нет в базе данных
Трек 11 нет в базе данных
Трек 12 нет в базе данных

Ни одного трека нет в базе AccurateRip

Конец отчёта

cue
REM GENRE "Thrash Metal"
REM DATE 1997
REM DISCID B00C2B0C
REM COMMENT "ExactAudioCopy v0.99pb5"
PERFORMER "OUTRAGE"
TITLE "Who We Are"
FILE "OUTRAGE - Who We Are.flac" WAVE
TRACK 01 AUDIO
TITLE "Broken Man"
PERFORMER "OUTRAGE"
INDEX 01 00:00:00
TRACK 02 AUDIO
TITLE "Let My Ass Go"
PERFORMER "OUTRAGE"
INDEX 01 03:50:27
TRACK 03 AUDIO
TITLE "The Ladder"
PERFORMER "OUTRAGE"
INDEX 01 07:56:47
TRACK 04 AUDIO
TITLE "After All"
PERFORMER "OUTRAGE"
INDEX 01 12:12:27
TRACK 05 AUDIO
TITLE "World Slow Down"
PERFORMER "OUTRAGE"
INDEX 01 18:45:30
TRACK 06 AUDIO
TITLE "Stuck Together"
PERFORMER "OUTRAGE"
INDEX 00 22:10:27
INDEX 01 22:12:15
TRACK 07 AUDIO
TITLE "Shadow"
PERFORMER "OUTRAGE"
INDEX 01 26:57:40
TRACK 08 AUDIO
TITLE "We Suck"
PERFORMER "OUTRAGE"
INDEX 01 30:57:65
TRACK 09 AUDIO
TITLE "Descent"
PERFORMER "OUTRAGE"
INDEX 01 33:09:65
TRACK 10 AUDIO
TITLE "Who We Are"
PERFORMER "OUTRAGE"
INDEX 01 38:05:27
TRACK 11 AUDIO
TITLE "Lash Me To The Wheel"
PERFORMER "OUTRAGE"
INDEX 00 39:52:60
INDEX 01 39:54:42
TRACK 12 AUDIO
TITLE "Donkey Ride"
PERFORMER "OUTRAGE"
INDEX 01 45:38:00

_________________


Top
 Profile E-mail  
 
 
PostPosted: 18 Oct 2017 
Хиппей (support team)
User avatar
Joined: 30 Jul 2007
Posts: 115032
Lоcаtion: Киев (Kyiv, UA)
Age: 46
Name: Andrey
Outrage - 2004 - Cause For Pause [flac]

Image Image Image Image

mirror: Depos l Narod l M-Cloud l Drop

Ещё один альбом в альтернативно-психозную мусорку :yyy:

2/10

Надеюсь, им сейчас за эти три альбома очень стыдно :kro:

Image Image Image

Image Image Image

log
Exact Audio Copy V0.99 prebeta 5 from 4. May 2009

Отчёт EAC об извлечении, выполненном 16. января 2014, 21:02

OUTRAGE / Cause For Pause

Дисковод: MATSHITADVD-RAM UJ8A0AS Adapter: 0 ID: 1

Режим чтения : Достоверность
Использование точного потока : Да
Отключение кэша аудио : Да
Использование указателей C2 : Нет

Коррекция смещения при чтении : 102
Способность читать области Lead-in и Lead-out : Нет
Заполнение пропущенных сэмплов тишиной : Да
Удаление блоков с тишиной в начале и конце : Нет
При вычислениях CRC использовались нулевые сэмплы : Да
Интерфейс : Встроенный Win32-интерфейс для Win NT/2000

Выходной формат : Пользовательский кодировщик
Выбранный битрейт : 1024 kBit/s
Качество : Высокий
Добавление ID3-тэга : Нет
Утилита сжатия : C:\Program Files\Exact Audio Copy\FLAC\FLAC.EXE
Дополнительные параметры : -6 -V -T "ARTIST=%a" -T "TITLE=%t" -T "ALBUM=%g" -T "DATE=%y" -T "TRACKNUMBER=%n" -T "GENRE=%m" -T "COMMENT=%e" %s -o %d


TOC извлечённого CD

Трек | Старт | Длительность | Начальный сектор | Конечный сектор
---------------------------------------------------------------------
1 | 0:00.00 | 4:42.25 | 0 | 21174
2 | 4:42.25 | 2:53.50 | 21175 | 34199
3 | 7:36.00 | 2:31.27 | 34200 | 45551
4 | 10:07.27 | 5:58.25 | 45552 | 72426
5 | 16:05.52 | 3:37.05 | 72427 | 88706
6 | 19:42.57 | 2:36.13 | 88707 | 100419
7 | 22:18.70 | 4:51.37 | 100420 | 122281
8 | 27:10.32 | 2:32.33 | 122282 | 133714
9 | 29:42.65 | 4:52.42 | 133715 | 155656
10 | 34:35.32 | 4:42.38 | 155657 | 176844
11 | 39:17.70 | 4:11.27 | 176845 | 195696
12 | 43:29.22 | 6:00.05 | 195697 | 222701
13 | 52:01.27 | 26:58.17 | 234102 | 355468


Характеристики диапазона извлечения и сообщения об ошибках

Выбранный диапазон

Имя файла C:\Users\эксперт\Music\OUTRAGE - Cause For Pause.wav

Пиковый уровень 98.8 %
Качество диапазона 100.0 %
CRC копии 674208B8
Копирование... OK

Ошибок не произошло


AccurateRip: сводка

Трек 1 нет в базе данных
Трек 2 нет в базе данных
Трек 3 нет в базе данных
Трек 4 нет в базе данных
Трек 5 нет в базе данных
Трек 6 нет в базе данных
Трек 7 нет в базе данных
Трек 8 нет в базе данных
Трек 9 нет в базе данных
Трек 10 нет в базе данных
Трек 11 нет в базе данных
Трек 12 нет в базе данных

Ни одного трека нет в базе AccurateRip

Конец отчёта

cue
REM GENRE "Thrash Metal"
REM DATE 2004
REM DISCID B212830D
REM COMMENT "ExactAudioCopy v0.99pb5"
PERFORMER "OUTRAGE"
TITLE "Cause For Pause"
FILE "OUTRAGE - Cause For Pause.flac" WAVE
TRACK 01 AUDIO
TITLE "Bleed Out"
PERFORMER "OUTRAGE"
INDEX 01 00:00:00
TRACK 02 AUDIO
TITLE "Deadbeat"
PERFORMER "OUTRAGE"
INDEX 01 04:42:25
TRACK 03 AUDIO
TITLE "Outta Change"
PERFORMER "OUTRAGE"
INDEX 01 07:36:00
TRACK 04 AUDIO
TITLE "China Doll"
PERFORMER "OUTRAGE"
INDEX 00 10:04:42
INDEX 01 10:07:27
TRACK 05 AUDIO
TITLE "Cat & Nines"
PERFORMER "OUTRAGE"
INDEX 00 16:05:35
INDEX 01 16:05:52
TRACK 06 AUDIO
TITLE "Do It Again"
PERFORMER "OUTRAGE"
INDEX 00 19:42:55
INDEX 01 19:42:57
TRACK 07 AUDIO
TITLE "Annihilist Existentialist"
PERFORMER "OUTRAGE"
INDEX 00 22:16:52
INDEX 01 22:18:70
TRACK 08 AUDIO
TITLE "Mental Asylum"
PERFORMER "OUTRAGE"
INDEX 00 27:10:02
INDEX 01 27:10:32
TRACK 09 AUDIO
TITLE "I Can See For Miles"
PERFORMER "OUTRAGE"
INDEX 01 29:42:65
TRACK 10 AUDIO
TITLE "Big Mouth"
PERFORMER "OUTRAGE"
INDEX 00 34:35:27
INDEX 01 34:35:32
TRACK 11 AUDIO
TITLE "Hit And Run"
PERFORMER "OUTRAGE"
INDEX 00 39:15:52
INDEX 01 39:17:70
TRACK 12 AUDIO
TITLE "La Luna Del Desierto"
PERFORMER "OUTRAGE"
INDEX 01 43:29:22

_________________


Top
 Profile E-mail  
 
 
PostPosted: 18 Oct 2017 
Хиппей (support team)
User avatar
Joined: 30 Jul 2007
Posts: 115032
Lоcаtion: Киев (Kyiv, UA)
Age: 46
Name: Andrey
Начал слушать следующий альбом, перед этим прочитав замечательную ревьюшку на М-А :kro:

Image

Перевод от компании Google (c)

_________________


Top
 Profile E-mail  
 
 
PostPosted: 18 Oct 2017 
Хиппей (support team)
User avatar
Joined: 30 Jul 2007
Posts: 115032
Lоcаtion: Киев (Kyiv, UA)
Age: 46
Name: Andrey
Scatterbrain wrote:
Начал слушать следующий альбом,

Ой, а ещё у них в 2002-м и 2004-м выходи полнофроматники. Правда, в сети пока не вижу послушать где и скачать :scratch:

_________________


Top
 Profile E-mail  
 
 
PostPosted: 18 Oct 2017 
Хиппей (support team)
User avatar
Joined: 30 Jul 2007
Posts: 115032
Lоcаtion: Киев (Kyiv, UA)
Age: 46
Name: Andrey
наткнулся по АПу темы :shok:

скачал интересующий меня материал - двойник Awakening 2008
сегодня ночью бу' слушать :meloman:

Сережа :thanx:

с ув. :lob:

И как? Послушал то? :scratch:

_________________


Top
 Profile E-mail  
 
 
PostPosted: 18 Oct 2017 
Хиппей (support team)
User avatar
Joined: 30 Jul 2007
Posts: 115032
Lоcаtion: Киев (Kyiv, UA)
Age: 46
Name: Andrey
Слил в кучку две темы.
Осталось найти (ну, кому вдруг понадобится) всего парочку альбомов группы.

_________________


Top
 Profile E-mail  
 
 
PostPosted: 18 Oct 2017 
Хиппей (support team)
User avatar
Joined: 30 Jul 2007
Posts: 115032
Lоcаtion: Киев (Kyiv, UA)
Age: 46
Name: Andrey
Scatterbrain wrote:
2002-м

:thanx: Серёга ранее заливал лосика :kro:

_________________


Top
 Profile E-mail  
 
 
PostPosted: 18 Oct 2017 
консэрваторъ
User avatar
Joined: 11 Aug 2007
Posts: 17327
Lоcаtion: Псков
Age: 45
Name: Сергей
Почему парочку?.. В простыне вроде три релиза...

_________________
THRASH 'EM ALL


Top
 Profile E-mail  
 
 
PostPosted: 18 Oct 2017 
Хиппей (support team)
User avatar
Joined: 30 Jul 2007
Posts: 115032
Lоcаtion: Киев (Kyiv, UA)
Age: 46
Name: Andrey
Простынь временная. Для отмазки.
Там нет пока и нового, лишь потому, что у нас его нет в виде ссылки.

_________________


Top
 Profile E-mail  
 
 
PostPosted: 19 Oct 2017 
Хиппей (support team)
User avatar
Joined: 30 Jul 2007
Posts: 115032
Lоcаtion: Киев (Kyiv, UA)
Age: 46
Name: Andrey
Outrage - 2009 - Outrage [flac]

Image Image Image Image

mirror: Depos l Narod l M-Cloud l Drop

В общем, как писал чуваг выше на скрине - альбом чуть лучше "DM" от группы Metallica, но с более приличным количеством хитов, - добавлю от себя.
Согласен с обоими :kro:

6/10

зы. Альбом может понравиться дядь Мише и.. Егору, если они его вдруг не слушали.
Напором своим, надрывом и.. некоторыми мелкими, но заметными паверными фишками.

Image Image Image Image

Image Image Image Image

Image Image Image Image

log
Exact Audio Copy V0.99 prebeta 5 from 4. May 2009

Отчёт EAC об извлечении, выполненном 14. марта 2015, 10:46

OUTRAGE / Outrage

Дисковод: MATSHITADVD-RAM UJ8A0AS Adapter: 0 ID: 1

Режим чтения : Достоверность
Использование точного потока : Да
Отключение кэша аудио : Да
Использование указателей C2 : Нет

Коррекция смещения при чтении : 102
Способность читать области Lead-in и Lead-out : Нет
Заполнение пропущенных сэмплов тишиной : Да
Удаление блоков с тишиной в начале и конце : Нет
При вычислениях CRC использовались нулевые сэмплы : Да
Интерфейс : Встроенный Win32-интерфейс для Win NT/2000

Выходной формат : Пользовательский кодировщик
Выбранный битрейт : 1024 kBit/s
Качество : Высокий
Добавление ID3-тэга : Нет
Утилита сжатия : C:\Program Files\Exact Audio Copy\FLAC\FLAC.EXE
Дополнительные параметры : -6 -V -T "ARTIST=%a" -T "TITLE=%t" -T "ALBUM=%g" -T "DATE=%y" -T "TRACKNUMBER=%n" -T "GENRE=%m" -T "COMMENT=%e" %s -o %d


TOC извлечённого CD

Трек | Старт | Длительность | Начальный сектор | Конечный сектор
---------------------------------------------------------------------
1 | 0:00.00 | 4:24.01 | 0 | 19800
2 | 4:24.01 | 3:59.03 | 19801 | 37728
3 | 8:23.04 | 5:26.48 | 37729 | 62226
4 | 13:49.52 | 4:18.15 | 62227 | 81591
5 | 18:07.67 | 4:05.30 | 81592 | 99996
6 | 22:13.22 | 3:49.72 | 99997 | 117243
7 | 26:03.19 | 2:48.03 | 117244 | 129846
8 | 28:51.22 | 6:06.09 | 129847 | 157305
9 | 34:57.31 | 2:46.29 | 157306 | 169784
10 | 37:43.60 | 3:45.65 | 169785 | 186724


Характеристики диапазона извлечения и сообщения об ошибках

Выбранный диапазон

Имя файла C:\Users\эксперт\Music\OUTRAGE - Outrage.wav

Пиковый уровень 100.0 %
Качество диапазона 100.0 %
CRC копии 3F823D9B
Копирование... OK

Ошибок не произошло


AccurateRip: сводка

Трек 1 точность не определена (достоверность 1) [913EC45F], AccurateRip вернул [1A1D351B]
Трек 2 точность не определена (достоверность 1) [0B021A67], AccurateRip вернул [C1770473]
Трек 3 точность не определена (достоверность 1) [96349C30], AccurateRip вернул [D61492C8]
Трек 4 точность не определена (достоверность 1) [3835A4BD], AccurateRip вернул [C90C139D]
Трек 5 точность не определена (достоверность 1) [ED622416], AccurateRip вернул [085EF96C]
Трек 6 точность не определена (достоверность 1) [50BC70E1], AccurateRip вернул [F34D7005]
Трек 7 точность не определена (достоверность 1) [2265B757], AccurateRip вернул [5D7455BD]
Трек 8 точность не определена (достоверность 1) [59134A5B], AccurateRip вернул [B1FCAB33]
Трек 9 точность не определена (достоверность 1) [9AB62735], AccurateRip вернул [47E9000F]
Трек 10 точность не определена (достоверность 1) [A9F0413E], AccurateRip вернул [D5E93708]

Ни один трек не прошёл проверки на точность
В вашей базе может быть иной вариант штамповки диска

Конец отчёта

cue
REM GENRE "Thrash Metal"
REM DATE 2009
REM DISCID 8609B90A
REM COMMENT "ExactAudioCopy v0.99pb5"
PERFORMER "OUTRAGE"
TITLE "Outrage"
FILE "OUTRAGE - Outrage.flac" WAVE
TRACK 01 AUDIO
TITLE "Rise"
PERFORMER "OUTRAGE"
INDEX 01 00:00:00
TRACK 02 AUDIO
TITLE "You Care? I Don't Care"
PERFORMER "OUTRAGE"
INDEX 01 04:24:01
TRACK 03 AUDIO
TITLE "Reign"
PERFORMER "OUTRAGE"
INDEX 01 08:23:04
TRACK 04 AUDIO
TITLE "Until You Are Dead"
PERFORMER "OUTRAGE"
INDEX 01 13:49:52
TRACK 05 AUDIO
TITLE "Fists Full Of Sand"
PERFORMER "OUTRAGE"
INDEX 01 18:07:67
TRACK 06 AUDIO
TITLE "Shells Rain Down"
PERFORMER "OUTRAGE"
INDEX 01 22:13:22
TRACK 07 AUDIO
TITLE "Landshark"
PERFORMER "OUTRAGE"
INDEX 01 26:03:19
TRACK 08 AUDIO
TITLE "Shine On"
PERFORMER "OUTRAGE"
INDEX 01 28:51:22
TRACK 09 AUDIO
TITLE "Tor"
PERFORMER "OUTRAGE"
INDEX 01 34:57:31
TRACK 10 AUDIO
TITLE "Terrorizer"
PERFORMER "OUTRAGE"
INDEX 01 37:43:60

_________________


Top
 Profile E-mail  
 
 
PostPosted: 19 Oct 2017 
Хиппей (support team)
User avatar
Joined: 30 Jul 2007
Posts: 115032
Lоcаtion: Киев (Kyiv, UA)
Age: 46
Name: Andrey
Scatterbrain wrote:
Outrage - 1993 - Spit

Да, вот чего вспомнил, если не запутался уже в альбомах...
Этот вот релиз записан мега-профессионально. Детализация инструментов и вокала на самом высочайшем уровне.
В общем, для любителей идеалистического саунда работа.

_________________


Top
 Profile E-mail  
 
 
PostPosted: 19 Oct 2017 
Хиппей (support team)
User avatar
Joined: 30 Jul 2007
Posts: 115032
Lоcаtion: Киев (Kyiv, UA)
Age: 46
Name: Andrey
Outrage - 2008 - Awakening (CD1) - The Final Day (live) [flac]

Image Image Image

Image Image Image Image

log
Exact Audio Copy V0.99 prebeta 5 from 4. May 2009

Отчёт EAC об извлечении, выполненном 19. марта 2014, 12:04

OUTRAGE / AWAKENING 2008 [DISC 1] THE FINAL DAY

Дисковод: MATSHITADVD-RAM UJ8A0AS Adapter: 0 ID: 1

Режим чтения : Достоверность
Использование точного потока : Да
Отключение кэша аудио : Да
Использование указателей C2 : Нет

Коррекция смещения при чтении : 102
Способность читать области Lead-in и Lead-out : Нет
Заполнение пропущенных сэмплов тишиной : Да
Удаление блоков с тишиной в начале и конце : Нет
При вычислениях CRC использовались нулевые сэмплы : Да
Интерфейс : Встроенный Win32-интерфейс для Win NT/2000

Выходной формат : Пользовательский кодировщик
Выбранный битрейт : 1024 kBit/s
Качество : Высокий
Добавление ID3-тэга : Нет
Утилита сжатия : C:\Program Files\Exact Audio Copy\FLAC\FLAC.EXE
Дополнительные параметры : -6 -V -T "ARTIST=%a" -T "TITLE=%t" -T "ALBUM=%g" -T "DATE=%y" -T "TRACKNUMBER=%n" -T "GENRE=%m" -T "COMMENT=%e" %s -o %d


TOC извлечённого CD

Трек | Старт | Длительность | Начальный сектор | Конечный сектор
---------------------------------------------------------------------
1 | 0:00.00 | 5:06.71 | 0 | 23020
2 | 5:06.71 | 4:53.23 | 23021 | 45018
3 | 10:00.19 | 6:13.22 | 45019 | 73015
4 | 16:13.41 | 4:01.46 | 73016 | 91136
5 | 20:15.12 | 4:00.04 | 91137 | 109140
6 | 24:15.16 | 6:10.23 | 109141 | 136913
7 | 30:25.39 | 6:20.18 | 136914 | 165431
8 | 36:45.57 | 4:40.70 | 165432 | 186501
9 | 41:26.52 | 5:17.13 | 186502 | 210289


Характеристики диапазона извлечения и сообщения об ошибках

Выбранный диапазон

Имя файла C:\Users\эксперт\Music\OUTRAGE - AWAKENING 2008 [DISC 1] THE FINAL DAY.wav

Пиковый уровень 98.8 %
Качество диапазона 100.0 %
CRC копии D35AE3BE
Копирование... OK

Ошибок не произошло


AccurateRip: сводка

Трек 1 точность не определена (достоверность 1) [4B4BE3FA], AccurateRip вернул [27FF1DD8]
Трек 2 точность не определена (достоверность 1) [0038E6DC], AccurateRip вернул [153576DF]
Трек 3 точность не определена (достоверность 1) [D692D36B], AccurateRip вернул [6A0EECB7]
Трек 4 точность не определена (достоверность 1) [EBD04F3B], AccurateRip вернул [82A33FB0]
Трек 5 точность не определена (достоверность 1) [5850621B], AccurateRip вернул [79C60991]
Трек 6 точность не определена (достоверность 1) [7D61B79D], AccurateRip вернул [8F911F07]
Трек 7 точность не определена (достоверность 1) [7D41CDBB], AccurateRip вернул [6BFA8AD9]
Трек 8 точность не определена (достоверность 1) [C174D414], AccurateRip вернул [C42EB27D]
Трек 9 точность не определена (достоверность 1) [40D9B448], AccurateRip вернул [787A3704]

Ни один трек не прошёл проверки на точность
В вашей базе может быть иной вариант штамповки диска

Конец отчёта

cue
REM GENRE "Thrash Metal"
REM DATE 2008
REM DISCID 790AF309
REM COMMENT "ExactAudioCopy v0.99pb5"
PERFORMER "OUTRAGE"
TITLE "AWAKENING 2008 [DISC 1] THE FINAL DAY"
FILE "OUTRAGE - AWAKENING 2008 [DISC 1] THE FINAL DAY.flac" WAVE
TRACK 01 AUDIO
TITLE "My Final Day (LIVE)"
PERFORMER "OUTRAGE"
INDEX 01 00:00:00
TRACK 02 AUDIO
TITLE "Madness (LIVE)"
PERFORMER "OUTRAGE"
INDEX 01 05:06:71
TRACK 03 AUDIO
TITLE "Follow (LIVE)"
PERFORMER "OUTRAGE"
INDEX 01 10:00:19
TRACK 04 AUDIO
TITLE "Wings (LIVE)"
PERFORMER "OUTRAGE"
INDEX 01 16:13:41
TRACK 05 AUDIO
TITLE "Sad Survivor (LIVE)"
PERFORMER "OUTRAGE"
INDEX 01 20:15:12
TRACK 06 AUDIO
TITLE "Visions (LIVE)"
PERFORMER "OUTRAGE"
INDEX 01 24:15:16
TRACK 07 AUDIO
TITLE "Veiled Sky (LIVE)"
PERFORMER "OUTRAGE"
INDEX 01 30:25:39
TRACK 08 AUDIO
TITLE "River (LIVE)"
PERFORMER "OUTRAGE"
INDEX 01 36:45:57
TRACK 09 AUDIO
TITLE "Fangs (LIVE)"
PERFORMER "OUTRAGE"


mirror: Depos l Narod l M-Cloud l Drop

Outrage - 2008 - Awakening (CD2) - Life Until Deaf (live) [flac]

mirror: Depos l Narod l M-Cloud l Drop

Image Image Image Image

Image Image Image Image

log
Exact Audio Copy V0.99 prebeta 5 from 4. May 2009

Отчёт EAC об извлечении, выполненном 19. марта 2014, 13:07

OUTRAGE / AWAKENING 2008 (DISC 2) LIFE UNTIL DEAF

Дисковод: MATSHITADVD-RAM UJ8A0AS Adapter: 0 ID: 1

Режим чтения : Достоверность
Использование точного потока : Да
Отключение кэша аудио : Да
Использование указателей C2 : Нет

Коррекция смещения при чтении : 102
Способность читать области Lead-in и Lead-out : Нет
Заполнение пропущенных сэмплов тишиной : Да
Удаление блоков с тишиной в начале и конце : Нет
При вычислениях CRC использовались нулевые сэмплы : Да
Интерфейс : Встроенный Win32-интерфейс для Win NT/2000

Выходной формат : Пользовательский кодировщик
Выбранный битрейт : 1024 kBit/s
Качество : Высокий
Добавление ID3-тэга : Нет
Утилита сжатия : C:\Program Files\Exact Audio Copy\FLAC\FLAC.EXE
Дополнительные параметры : -6 -V -T "ARTIST=%a" -T "TITLE=%t" -T "ALBUM=%g" -T "DATE=%y" -T "TRACKNUMBER=%n" -T "GENRE=%m" -T "COMMENT=%e" %s -o %d


TOC извлечённого CD

Трек | Старт | Длительность | Начальный сектор | Конечный сектор
---------------------------------------------------------------------
1 | 0:00.00 | 5:31.58 | 0 | 24882
2 | 5:31.58 | 5:35.52 | 24883 | 50059
3 | 11:07.35 | 6:33.56 | 50060 | 79590
4 | 17:41.16 | 5:01.22 | 79591 | 102187
5 | 22:42.38 | 7:29.50 | 102188 | 135912
6 | 30:12.13 | 3:24.59 | 135913 | 151271
7 | 33:36.72 | 6:26.02 | 151272 | 180223
8 | 40:02.74 | 4:49.70 | 180224 | 201968
9 | 44:52.69 | 3:39.00 | 201969 | 218393
10 | 48:31.69 | 4:35.11 | 218394 | 239029
11 | 53:07.05 | 5:21.10 | 239030 | 263114


Характеристики диапазона извлечения и сообщения об ошибках

Выбранный диапазон

Имя файла C:\Users\эксперт\Music\OUTRAGE - AWAKENING 2008 (DISC 2) LIFE UNTIL DEAF.wav

Пиковый уровень 98.9 %
Качество диапазона 100.0 %
CRC копии 873B7905
Копирование... OK

Ошибок не произошло


AccurateRip: сводка

Трек 1 точность не определена (достоверность 1) [C5933014], AccurateRip вернул [8FE778A1]
Трек 2 точность не определена (достоверность 1) [D4EC69ED], AccurateRip вернул [E2F410FB]
Трек 3 точность не определена (достоверность 1) [ED5AE74E], AccurateRip вернул [520B399F]
Трек 4 точность не определена (достоверность 1) [E4593FCB], AccurateRip вернул [1D8103F6]
Трек 5 точность не определена (достоверность 1) [38F3591F], AccurateRip вернул [FE736743]
Трек 6 точность не определена (достоверность 1) [7B0D4BC6], AccurateRip вернул [7A20DA49]
Трек 7 точность не определена (достоверность 1) [1A50E935], AccurateRip вернул [07DE0EB0]
Трек 8 точность не определена (достоверность 1) [5E8B0DB9], AccurateRip вернул [78097F72]
Трек 9 точность не определена (достоверность 1) [0B12128E], AccurateRip вернул [6A7BD6AD]
Трек 10 точность не определена (достоверность 1) [498B0674], AccurateRip вернул [267EE9D4]
Трек 11 точность не определена (достоверность 1) [895C454B], AccurateRip вернул [A51BA372]

Ни один трек не прошёл проверки на точность
В вашей базе может быть иной вариант штамповки диска

Конец отчёта

cue
REM GENRE "Thrash Metal"
REM DATE 2008
REM DISCID 940DB40B
REM COMMENT "ExactAudioCopy v0.99pb5"
PERFORMER "OUTRAGE"
TITLE "AWAKENING 2008 (DISC 2) LIFE UNTIL DEAF"
FILE "OUTRAGE - AWAKENING 2008 (DISC 2) LIFE UNTIL DEAF.flac" WAVE
TRACK 01 AUDIO
TITLE "Megalomania"
PERFORMER "OUTRAGE"
INDEX 01 00:00:00
TRACK 02 AUDIO
TITLE "Vanishing Fully From The World"
PERFORMER "OUTRAGE"
INDEX 01 05:31:58
TRACK 03 AUDIO
TITLE "Undertow"
PERFORMER "OUTRAGE"
INDEX 01 11:07:35
TRACK 04 AUDIO
TITLE "Midnite Carnival"
PERFORMER "OUTRAGE"
INDEX 01 17:41:16
TRACK 05 AUDIO
TITLE "In Union With Earth"
PERFORMER "OUTRAGE"
INDEX 01 22:42:38
TRACK 06 AUDIO
TITLE "Echo"
PERFORMER "OUTRAGE"
INDEX 01 30:12:13
TRACK 07 AUDIO
TITLE "Draggin' Me Down (Fear Is)"
PERFORMER "OUTRAGE"
INDEX 01 33:36:72
TRACK 08 AUDIO
TITLE "You Suck"
PERFORMER "OUTRAGE"
INDEX 01 40:02:74
TRACK 09 AUDIO
TITLE "Concrete Mirror"
PERFORMER "OUTRAGE"
INDEX 01 44:52:69
TRACK 10 AUDIO
TITLE "Argument"
PERFORMER "OUTRAGE"
INDEX 01 48:31:69
TRACK 11 AUDIO
TITLE "Live Until You Die"
PERFORMER "OUTRAGE"
INDEX 01 53:07:05



Оба концерта качественно очень сыграны и записаны :kro:

6/10

_________________


Top
 Profile E-mail  
 
 
PostPosted: 20 Oct 2017 
Хиппей (support team)
User avatar
Joined: 30 Jul 2007
Posts: 115032
Lоcаtion: Киев (Kyiv, UA)
Age: 46
Name: Andrey
Outrage - 2015 - Genesis 1 [320]

Image

mirror: Depos l Narod l M-Cloud l

Хрень в виде.. новомодного хард-рока :yyy:

3/10

_________________


Top
 Profile E-mail  
 
 
PostPosted: 21 Oct 2017 
Хиппей (support team)
User avatar
Joined: 30 Jul 2007
Posts: 115032
Lоcаtion: Киев (Kyiv, UA)
Age: 46
Name: Andrey
Outrage - 2017 - Raging Out [320]

Image

mirror: Depos l Narod l M-Cloud l Drop

Группа заиграла обычный старческий хэви с модным звуком и.. зачем-то два-три раза, как заметил выше дядь Миша, попыталась поиграть в Testament :scratch:
В общем, довольно странный и какой-то несуразный альбом.

5/10

_________________


Top
 Profile E-mail  
 
 
PostPosted: 21 Oct 2017 
Хиппей (support team)
User avatar
Joined: 30 Jul 2007
Posts: 115032
Lоcаtion: Киев (Kyiv, UA)
Age: 46
Name: Andrey
Осталось для полной коллекции студийных альбом всего 2 штуки найти. Не спешим, сами как-то всплывут. Тем более никому они толком здесь не нужны, но абы были.
Рекс не ставлю, полотенце лишь оставлю.

_________________


Top
 Profile E-mail  
 
Display posts from previous:  Sort by  
Post new topic Reply to topic  [ 99 posts ]  Go to page Previous  1, 2, 3, 4, 5

All times are UTC + 3 hours


Who is online

Users browsing this forum: No registered users and 1 guest


You cannot post new topics in this forum
You cannot reply to topics in this forum
You cannot edit your posts in this forum
You cannot delete your posts in this forum
You cannot post attachments in this forum

Search for:
Яндекс.Метрика
Powered by phpBB © 2000, 2002, 2005, 2007 phpBB Group