\m/ 80's metal \m/

Информационно-аналитический форум "80 см пыли" (In Search We Trust) "У нас никто никуда не спешит"
Me For You - http://me-4u.com
It is currently 21 Oct 2019

All times are UTC + 3 hours

Spoiler
Chat - temporary registration for foreign users (please leave your application here)







Post new topic Reply to topic  [ 99 posts ]  Go to page Previous  1, 2, 3, 4, 5  Next
Author Message
 
PostPosted: 02 Apr 2009 
Персональный статус
Joined: 30 Aug 2008
Posts: 337
Lоcаtion: Львов
Age: 46
Name: .Алексей
> Осталось найти: | Still looking:
Outrage - 2002 - 24-7
Outrage - 2013 - Outraged


Top
 Profile E-mail  
 
 
PostPosted: 16 Oct 2017 
Я набрал 1000 сообщений!
Joined: 09 Jul 2008
Posts: 3071
Age: 46
Name: Сергей
оч понравилась первая песня, ну, думаю, ожили старички
ан нет, дальше все много хуже, смог дослушать ток до половины


Top
 Profile  
 
 
PostPosted: 16 Oct 2017 
дядя Миша
User avatar
Joined: 17 Oct 2008
Posts: 3190
Lоcаtion: USSR
Age: 57
Name: Khy
команда была всегда туповата. Но последний альбом удивил до нельзя. Зачем они так закосили под Testament в нескольких песенках? По крайней мере было своё лицо,так нет, надо пластику всем сделать. :tro:


Top
 Profile  
 
 
PostPosted: 16 Oct 2017 
Хиппей (support team)
User avatar
Joined: 30 Jul 2007
Posts: 114979
Lоcаtion: Киев (Kyiv, UA)
Age: 46
Name: Andrey
Outrage - 1988 - Black Clouds [flac]

Image Image

mirror: Depos l Narod l M-Cloud l Drop

Мде.. Очередной ранний клон ранней Металлики :yyy:




Image Image Image Image


ImageImage Image

log
Exact Audio Copy V0.99 prebeta 5 from 4. May 2009

Отчёт EAC об извлечении, выполненном 7. апреля 2014, 11:02

OUTRAGE / Black Clouds

Дисковод: MATSHITADVD-RAM UJ8A0AS Adapter: 0 ID: 1

Режим чтения : Достоверность
Использование точного потока : Да
Отключение кэша аудио : Да
Использование указателей C2 : Нет

Коррекция смещения при чтении : 102
Способность читать области Lead-in и Lead-out : Нет
Заполнение пропущенных сэмплов тишиной : Да
Удаление блоков с тишиной в начале и конце : Нет
При вычислениях CRC использовались нулевые сэмплы : Да
Интерфейс : Встроенный Win32-интерфейс для Win NT/2000

Выходной формат : Пользовательский кодировщик
Выбранный битрейт : 1024 kBit/s
Качество : Высокий
Добавление ID3-тэга : Нет
Утилита сжатия : C:\Program Files\Exact Audio Copy\FLAC\FLAC.EXE
Дополнительные параметры : -6 -V -T "ARTIST=%a" -T "TITLE=%t" -T "ALBUM=%g" -T "DATE=%y" -T "TRACKNUMBER=%n" -T "GENRE=%m" -T "COMMENT=%e" %s -o %d


TOC извлечённого CD

Трек | Старт | Длительность | Начальный сектор | Конечный сектор
---------------------------------------------------------------------
1 | 0:00.37 | 5:42.53 | 37 | 25739
2 | 5:43.15 | 3:50.50 | 25740 | 43039
3 | 9:33.65 | 4:52.30 | 43040 | 64969
4 | 14:26.20 | 6:54.57 | 64970 | 96076
5 | 21:21.02 | 7:35.45 | 96077 | 130246
6 | 28:56.47 | 0:57.15 | 130247 | 134536
7 | 29:53.62 | 7:24.10 | 134537 | 167846
8 | 37:17.72 | 5:58.15 | 167847 | 194711


Характеристики диапазона извлечения и сообщения об ошибках

Выбранный диапазон

Имя файла C:\Users\эксперт\Music\OUTRAGE - Black Clouds.wav

Пиковый уровень 100.0 %
Качество диапазона 100.0 %
CRC копии 02310AE9
Копирование... OK

Ошибок не произошло


AccurateRip: сводка

Трек 1 нет в базе данных
Трек 2 нет в базе данных
Трек 3 нет в базе данных
Трек 4 нет в базе данных
Трек 5 нет в базе данных
Трек 6 нет в базе данных
Трек 7 нет в базе данных
Трек 8 нет в базе данных

Ни одного трека нет в базе AccurateRip

Конец отчёта

cue
REM GENRE "Thrash Metal"
REM DATE 1988
REM DISCID 7C0A2408
REM COMMENT "ExactAudioCopy v0.99pb5"
PERFORMER "OUTRAGE"
TITLE "Black Clouds"
FILE "OUTRAGE - Black Clouds.flac" WAVE
TRACK 01 AUDIO
TITLE "Curtain Of History"
PERFORMER "OUTRAGE"
INDEX 00 00:00:00
INDEX 01 00:00:37
TRACK 02 AUDIO
TITLE "Under Control Of Law"
PERFORMER "OUTRAGE"
INDEX 01 05:43:15
TRACK 03 AUDIO
TITLE "Slowly But Surely"
PERFORMER "OUTRAGE"
INDEX 01 09:33:65
TRACK 04 AUDIO
TITLE "Black Clouds"
PERFORMER "OUTRAGE"
INDEX 01 14:26:20
TRACK 05 AUDIO
TITLE "Bring Him Back"
PERFORMER "OUTRAGE"
INDEX 01 21:21:02
TRACK 06 AUDIO
TITLE "Eos"
PERFORMER "OUTRAGE"
INDEX 01 28:56:47
TRACK 07 AUDIO
TITLE "Edge Of Death"
PERFORMER "OUTRAGE"
INDEX 01 29:53:62
TRACK 08 AUDIO
TITLE "Peyote"
PERFORMER "OUTRAGE"
INDEX 01 37:17:72

_________________


Top
 Profile E-mail  
 
 
PostPosted: 16 Oct 2017 
Хиппей (support team)
User avatar
Joined: 30 Jul 2007
Posts: 114979
Lоcаtion: Киев (Kyiv, UA)
Age: 46
Name: Andrey
VARVAAR wrote:
Зачем они так закосили под Testament в нескольких песенках? По крайней мере было своё лицо,так нет, надо пластику всем сделать. :tro:

Я тут ща пытаюсь вспомнить хоть одну японскую группу, игравшую тяжёлый рок и выделявшуюся чем-то своим (в плане музыки), а не удачно и качественно стыренным и переигранным? :scratch:


_________________


Top
 Profile E-mail  
 
 
PostPosted: 16 Oct 2017 
Хиппей (support team)
User avatar
Joined: 30 Jul 2007
Posts: 114979
Lоcаtion: Киев (Kyiv, UA)
Age: 46
Name: Andrey
Вот любопытно, Серёга splatty на ранние альбомы этой группы тоже надрачивать яростно будет? :vic:

_________________


Top
 Profile E-mail  
 
 
PostPosted: 16 Oct 2017 
Хиппей (support team)
User avatar
Joined: 30 Jul 2007
Posts: 114979
Lоcаtion: Киев (Kyiv, UA)
Age: 46
Name: Andrey
Image

Ухуххуууууууууууууухуххуухууууууу :nunu: :cry: :esel: :esel: :esel:

:arrow: https://www.metal-archives.com/reviews/ ... uds/18772/ :yyy:

_________________


Top
 Profile E-mail  
 
 
PostPosted: 17 Oct 2017 
Хиппей (support team)
User avatar
Joined: 30 Jul 2007
Posts: 114979
Lоcаtion: Киев (Kyiv, UA)
Age: 46
Name: Andrey
Scatterbrain wrote:
Outrage - 1988 - Black Clouds

Ага ж, и тем не менее, оценку то альбому выставить нужно :pardon:

7/10

_________________


Top
 Profile E-mail  
 
 
PostPosted: 17 Oct 2017 
консэрваторъ
User avatar
Joined: 11 Aug 2007
Posts: 17316
Lоcаtion: Псков
Age: 45
Name: Сергей
А мне точно надо это слушать когда-то?.. :scratch: И вон у Вас там в простыне зелёной дохрена ещё чего не найден... :vic:

_________________
THRASH 'EM ALL


Top
 Profile E-mail  
 
 
PostPosted: 17 Oct 2017 
Генеральный thrasher
User avatar
Joined: 03 Oct 2008
Posts: 3741
Lоcаtion: Ханты-Мансийский АО
Age: 44
Name: Сергей
Для кого я всё здесь выкладывал?

viewtopic.php?f=188&t=12870


Top
 Profile  
 
 
PostPosted: 17 Oct 2017 
консэрваторъ
User avatar
Joined: 11 Aug 2007
Posts: 17316
Lоcаtion: Псков
Age: 45
Name: Сергей
Опа... А зачем Саныч тогда здесь мутить дискографию?..
А это всё от того, что порядка нет... не каталогизировано... :pardon:
13 только полнометражников!.. :shok:

_________________
THRASH 'EM ALL


Top
 Profile E-mail  
 
 
PostPosted: 17 Oct 2017 
Доктор энтомологии
User avatar
Joined: 22 Jan 2009
Posts: 9927
Lоcаtion: Даугавпилс
Age: 44
Name: Алексей
И в трасхэмол надо перетянуть :oops:


Top
 Profile  
 
 
PostPosted: 17 Oct 2017 
Хиппей (support team)
User avatar
Joined: 30 Jul 2007
Posts: 114979
Lоcаtion: Киев (Kyiv, UA)
Age: 46
Name: Andrey
Outrage - 1989 - Blind To Reality [flac]

Image Image

mirror: Depos l Narod l M-Cloud l Drop


Вчера ещё захотелось смачно и долго говорить об этом альбоме и угадывать, в каком направление будет развиваться "творчество" данной группы, в отличие от самого коллектива Metallica, но..
Давайте я просто промолчу :pardon:

6/10

Image Image

Image Image

log
Exact Audio Copy V0.99 prebeta 5 from 4. May 2009

Отчёт EAC об извлечении, выполненном 30. марта 2015, 17:42

Outrage / Blind To Reality

Дисковод: MATSHITADVD-RAM UJ8A0AS Adapter: 0 ID: 1

Режим чтения : Достоверность
Использование точного потока : Да
Отключение кэша аудио : Да
Использование указателей C2 : Нет

Коррекция смещения при чтении : 102
Способность читать области Lead-in и Lead-out : Нет
Заполнение пропущенных сэмплов тишиной : Да
Удаление блоков с тишиной в начале и конце : Нет
При вычислениях CRC использовались нулевые сэмплы : Да
Интерфейс : Встроенный Win32-интерфейс для Win NT/2000

Выходной формат : Пользовательский кодировщик
Выбранный битрейт : 1024 kBit/s
Качество : Высокий
Добавление ID3-тэга : Нет
Утилита сжатия : C:\Program Files\Exact Audio Copy\FLAC\FLAC.EXE
Дополнительные параметры : -6 -V -T "ARTIST=%a" -T "TITLE=%t" -T "ALBUM=%g" -T "DATE=%y" -T "TRACKNUMBER=%n" -T "GENRE=%m" -T "COMMENT=%e" %s -o %d


TOC извлечённого CD

Трек | Старт | Длительность | Начальный сектор | Конечный сектор
---------------------------------------------------------------------
1 | 0:00.37 | 5:29.30 | 37 | 24741
2 | 5:29.67 | 8:54.45 | 24742 | 64836
3 | 14:24.37 | 6:41.30 | 64837 | 94941
4 | 21:05.67 | 8:31.45 | 94942 | 133311
5 | 29:37.37 | 5:00.00 | 133312 | 155811
6 | 34:37.37 | 6:40.55 | 155812 | 185866
7 | 41:18.17 | 6:39.33 | 185867 | 215824
8 | 47:57.50 | 11:02.05 | 215825 | 265479


Характеристики диапазона извлечения и сообщения об ошибках

Выбранный диапазон

Имя файла C:\Users\эксперт\Music\Outrage - Blind To Reality.wav

Пиковый уровень 100.0 %
Качество диапазона 100.0 %
CRC копии 1344EB5A
Копирование... OK

Ошибок не произошло


AccurateRip: сводка

Трек 1 точное извлечение (доверие 1) [F0E3A3B7]
Трек 2 точное извлечение (доверие 1) [56DC5480]
Трек 3 точное извлечение (доверие 1) [409A943A]
Трек 4 точное извлечение (доверие 1) [F3B3DE3C]
Трек 5 точное извлечение (доверие 1) [051EF824]
Трек 6 точное извлечение (доверие 1) [49C79354]
Трек 7 точное извлечение (доверие 1) [6F655766]
Трек 8 точное извлечение (доверие 1) [96F914D6]

Все треки извлечены точно

Конец отчёта

cue
REM GENRE "Thrash Metal"
REM DATE 1989
REM DISCID 7F0DD308
REM COMMENT "ExactAudioCopy v0.99pb5"
PERFORMER "Outrage"
TITLE "Blind To Reality"
FILE "Outrage - Blind To Reality.flac" WAVE
TRACK 01 AUDIO
TITLE "Blind To Reality"
PERFORMER "Outrage"
INDEX 00 00:00:00
INDEX 01 00:00:37
TRACK 02 AUDIO
TITLE "In His Steel Claw"
PERFORMER "Outrage"
INDEX 01 05:29:67
TRACK 03 AUDIO
TITLE "Call Of The Hunter"
PERFORMER "Outrage"
INDEX 00 14:22:62
INDEX 01 14:24:37
TRACK 04 AUDIO
TITLE "Nowhere To Turn"
PERFORMER "Outrage"
INDEX 01 21:05:67
TRACK 05 AUDIO
TITLE "Name Your Poison"
PERFORMER "Outrage"
INDEX 00 29:36:02
INDEX 01 29:37:37
TRACK 06 AUDIO
TITLE "Game Of Greed"
PERFORMER "Outrage"
INDEX 00 34:36:74
INDEX 01 34:37:37
TRACK 07 AUDIO
TITLE "What Is The Meaning Of Freedom?"
PERFORMER "Outrage"
INDEX 01 41:18:17
TRACK 08 AUDIO
TITLE "Lockin' At Time"
PERFORMER "Outrage"
INDEX 00 47:55:59
INDEX 01 47:57:50

_________________


Top
 Profile E-mail  
 
 
PostPosted: 17 Oct 2017 
Хиппей (support team)
User avatar
Joined: 30 Jul 2007
Posts: 114979
Lоcаtion: Киев (Kyiv, UA)
Age: 46
Name: Andrey
Для кого я всё здесь выкладывал?

viewtopic.php?f=188&t=12870

О, красота какая :kro:
Ну тогда я прост о объединю темы и поперезаливаю кое-что :pardon:

Просю заметить - никто по группе ещё и слова толком не сказал здесь за 8 лет :lloo:

Ссылки, картинки, ссылки, спасибки - всё :cow:

_________________


Top
 Profile E-mail  
 
 
PostPosted: 17 Oct 2017 
Хиппей (support team)
User avatar
Joined: 30 Jul 2007
Posts: 114979
Lоcаtion: Киев (Kyiv, UA)
Age: 46
Name: Andrey
А мне точно надо это слушать когда-то?.. :scratch:

Более чем. Это тебя порвёт точно :kro:

_________________


Top
 Profile E-mail  
 
 
PostPosted: 17 Oct 2017 
Я набрал 1000 сообщений!
Joined: 09 Jul 2008
Posts: 3071
Age: 46
Name: Сергей
Scatterbrain wrote:
порвёт точно

ха-ха


Top
 Profile  
 
 
PostPosted: 17 Oct 2017 
Хиппей (support team)
User avatar
Joined: 30 Jul 2007
Posts: 114979
Lоcаtion: Киев (Kyiv, UA)
Age: 46
Name: Andrey
Слушаю альбом 90-года. Рыдаю. Меня рвёт ваааще :yyy: :lob: :lob: :lob:

_________________


Top
 Profile E-mail  
 
 
PostPosted: 17 Oct 2017 
Хиппей (support team)
User avatar
Joined: 30 Jul 2007
Posts: 114979
Lоcаtion: Киев (Kyiv, UA)
Age: 46
Name: Andrey
VARVAAR wrote:
команда была всегда туповата.

:thanx: Очень метко сказано.

Дальше попробую всё ж послушать альбомы =)

_________________


Top
 Profile E-mail  
 
 
PostPosted: 17 Oct 2017 
Хиппей (support team)
User avatar
Joined: 30 Jul 2007
Posts: 114979
Lоcаtion: Киев (Kyiv, UA)
Age: 46
Name: Andrey
Outrage - 1990 - The Great Blue [flac]

Image Image Image

mirror: Depos l Narod l M-Cloud l Drop

7/10

Появились соло гитарные :meloman: И иногда пост-индустриальные звуки.

Image Image Image

Image Image Image Image

Image Image Image Image

log
Exact Audio Copy V0.99 prebeta 5 from 4. May 2009

Отчёт EAC об извлечении, выполненном 26. апреля 2014, 16:53

OUTRAGE / The Great Blue

Дисковод: MATSHITADVD-RAM UJ8A0AS Adapter: 0 ID: 1

Режим чтения : Достоверность
Использование точного потока : Да
Отключение кэша аудио : Да
Использование указателей C2 : Нет

Коррекция смещения при чтении : 102
Способность читать области Lead-in и Lead-out : Нет
Заполнение пропущенных сэмплов тишиной : Да
Удаление блоков с тишиной в начале и конце : Нет
При вычислениях CRC использовались нулевые сэмплы : Да
Интерфейс : Встроенный Win32-интерфейс для Win NT/2000

Выходной формат : Пользовательский кодировщик
Выбранный битрейт : 1024 kBit/s
Качество : Высокий
Добавление ID3-тэга : Нет
Утилита сжатия : C:\Program Files\Exact Audio Copy\FLAC\FLAC.EXE
Дополнительные параметры : -6 -V -T "ARTIST=%a" -T "TITLE=%t" -T "ALBUM=%g" -T "DATE=%y" -T "TRACKNUMBER=%n" -T "GENRE=%m" -T "COMMENT=%e" %s -o %d


TOC извлечённого CD

Трек | Старт | Длительность | Начальный сектор | Конечный сектор
---------------------------------------------------------------------
1 | 0:00.37 | 5:21.10 | 37 | 24121
2 | 5:21.47 | 4:20.65 | 24122 | 43686
3 | 9:42.37 | 6:16.45 | 43687 | 71931
4 | 15:59.07 | 4:02.65 | 71932 | 90146
5 | 20:01.72 | 1:43.38 | 90147 | 97909
6 | 21:45.35 | 6:33.27 | 97910 | 127411
7 | 28:18.62 | 4:58.58 | 127412 | 149819
8 | 33:17.45 | 8:39.42 | 149820 | 188786
9 | 41:57.12 | 3:43.63 | 188787 | 205574


Характеристики диапазона извлечения и сообщения об ошибках

Выбранный диапазон

Имя файла C:\Users\эксперт\Music\OUTRAGE - The Great Blue.wav

Пиковый уровень 100.0 %
Качество диапазона 100.0 %
CRC копии 3728D517
Копирование... OK

Ошибок не произошло


AccurateRip: сводка

Трек 1 нет в базе данных
Трек 2 нет в базе данных
Трек 3 нет в базе данных
Трек 4 нет в базе данных
Трек 5 нет в базе данных
Трек 6 нет в базе данных
Трек 7 нет в базе данных
Трек 8 нет в базе данных
Трек 9 нет в базе данных

Ни одного трека нет в базе AccurateRip

Конец отчёта

cue
REM GENRE "Thrash Metal"
REM DATE 1990
REM DISCID 710AB509
REM COMMENT "ExactAudioCopy v0.99pb5"
PERFORMER "OUTRAGE"
TITLE "The Great Blue"
FILE "OUTRAGE - The Great Blue.flac" WAVE
TRACK 01 AUDIO
TITLE "Just Believe In Me"
PERFORMER "OUTRAGE"
INDEX 00 00:00:00
INDEX 01 00:00:37
TRACK 02 AUDIO
TITLE "Rusty Door"
PERFORMER "OUTRAGE"
INDEX 01 05:21:47
TRACK 03 AUDIO
TITLE "Fall To Disorder"
PERFORMER "OUTRAGE"
INDEX 00 09:41:53
INDEX 01 09:42:37
TRACK 04 AUDIO
TITLE "The Day Of Rage"
PERFORMER "OUTRAGE"
INDEX 01 15:59:07
TRACK 05 AUDIO
TITLE "Voyage Of ..."
PERFORMER "OUTRAGE"
INDEX 01 20:01:72
TRACK 06 AUDIO
TITLE "... Clay Liner"
PERFORMER "OUTRAGE"
INDEX 01 21:45:35
TRACK 07 AUDIO
TITLE "The Truth"
PERFORMER "OUTRAGE"
INDEX 01 28:18:62
TRACK 08 AUDIO
TITLE "Great Blue"
PERFORMER "OUTRAGE"
INDEX 01 33:17:45
TRACK 09 AUDIO
TITLE "Bearing Down"
PERFORMER "OUTRAGE"
INDEX 01 41:57:12

_________________


Top
 Profile E-mail  
 
 
PostPosted: 17 Oct 2017 
Хиппей (support team)
User avatar
Joined: 30 Jul 2007
Posts: 114979
Lоcаtion: Киев (Kyiv, UA)
Age: 46
Name: Andrey
Outrage - Great Blue


Одноимённый трэк, почти как и "One", нереально рвёт душу и ухи в ошмётки :meloman:

_________________


Top
 Profile E-mail  
 
 
PostPosted: 17 Oct 2017 
Хиппей (support team)
User avatar
Joined: 30 Jul 2007
Posts: 114979
Lоcаtion: Киев (Kyiv, UA)
Age: 46
Name: Andrey
Outrage - 1991 - The Final Day [flac]

Image Image Image Image

mirror: Depos l Narod l M-Cloud l Drop

Нежданный минимализм альбома весьма понравился :lob: :lob: :lob:

7/10

Image
Image

Image Image Image Image

log
Exact Audio Copy V0.99 prebeta 5 from 4. May 2009

Отчёт EAC об извлечении, выполненном 2. ноября 2013, 9:05

Outrage / The Final Day

Дисковод: MATSHITADVD-RAM UJ8A0AS Adapter: 0 ID: 1

Режим чтения : Достоверность
Использование точного потока : Да
Отключение кэша аудио : Да
Использование указателей C2 : Нет

Коррекция смещения при чтении : 102
Способность читать области Lead-in и Lead-out : Нет
Заполнение пропущенных сэмплов тишиной : Да
Удаление блоков с тишиной в начале и конце : Нет
При вычислениях CRC использовались нулевые сэмплы : Да
Интерфейс : Встроенный Win32-интерфейс для Win NT/2000

Выходной формат : Пользовательский кодировщик
Выбранный битрейт : 1024 kBit/s
Качество : Высокий
Добавление ID3-тэга : Нет
Утилита сжатия : C:\Program Files\Exact Audio Copy\FLAC\FLAC.EXE
Дополнительные параметры : -6 -V -T "ARTIST=%a" -T "TITLE=%t" -T "ALBUM=%g" -T "DATE=%y" -T "TRACKNUMBER=%n" -T "GENRE=%m" -T "COMMENT=%e" %s -o %d


TOC извлечённого CD

Трек | Старт | Длительность | Начальный сектор | Конечный сектор
---------------------------------------------------------------------
1 | 0:00.33 | 4:38.65 | 33 | 20947
2 | 4:39.23 | 4:05.42 | 20948 | 39364
3 | 8:44.65 | 5:38.53 | 39365 | 64767
4 | 14:23.43 | 4:00.72 | 64768 | 82839
5 | 18:24.40 | 3:57.03 | 82840 | 100617
6 | 22:21.43 | 4:31.72 | 100618 | 121014
7 | 26:53.40 | 5:38.00 | 121015 | 146364
8 | 32:31.40 | 4:52.20 | 146365 | 168284
9 | 37:23.60 | 4:09.48 | 168285 | 187007


Характеристики диапазона извлечения и сообщения об ошибках

Выбранный диапазон

Имя файла C:\Users\эксперт\Music\Outrage - The Final Day.wav

Пиковый уровень 100.0 %
Качество диапазона 100.0 %
CRC копии B2832E46
Копирование... OK

Ошибок не произошло


AccurateRip: сводка

Трек 1 точное извлечение (доверие 2) [58381243]
Трек 2 точное извлечение (доверие 2) [D0408775]
Трек 3 точное извлечение (доверие 2) [60FE806E]
Трек 4 точное извлечение (доверие 2) [578431C7]
Трек 5 точное извлечение (доверие 2) [448C77CE]
Трек 6 точное извлечение (доверие 2) [138AD44C]
Трек 7 точное извлечение (доверие 2) [77350505]
Трек 8 точное извлечение (доверие 2) [8346D08B]
Трек 9 точное извлечение (доверие 2) [3347DA81]

Все треки извлечены точно

Конец отчёта

cue
REM GENRE "Thrash Metal"
REM DATE 1991
REM DISCID 6C09BD09
REM COMMENT "ExactAudioCopy v0.99pb5"
PERFORMER "Outrage"
TITLE "The Final Day"
FILE "Outrage - The Final Day.flac" WAVE
TRACK 01 AUDIO
TITLE "My final Day"
PERFORMER "Outrage"
INDEX 00 00:00:00
INDEX 01 00:00:33
TRACK 02 AUDIO
TITLE "Madness"
PERFORMER "Outrage"
INDEX 01 04:39:23
TRACK 03 AUDIO
TITLE "Follow"
PERFORMER "Outrage"
INDEX 01 08:44:65
TRACK 04 AUDIO
TITLE "Wings"
PERFORMER "Outrage"
INDEX 01 14:23:43
TRACK 05 AUDIO
TITLE "Sad Survivor"
PERFORMER "Outrage"
INDEX 01 18:24:40
TRACK 06 AUDIO
TITLE "Visions"
PERFORMER "Outrage"
INDEX 01 22:21:43
TRACK 07 AUDIO
TITLE "Veild Sky"
PERFORMER "Outrage"
INDEX 01 26:53:40
TRACK 08 AUDIO
TITLE "River"
PERFORMER "Outrage"
INDEX 01 32:31:40
TRACK 09 AUDIO
TITLE "Fangs"
PERFORMER "Outrage"
INDEX 01 37:23:60

_________________


Top
 Profile E-mail  
 
Display posts from previous:  Sort by  
Post new topic Reply to topic  [ 99 posts ]  Go to page Previous  1, 2, 3, 4, 5  Next

All times are UTC + 3 hours


Who is online

Users browsing this forum: No registered users and 1 guest


You cannot post new topics in this forum
You cannot reply to topics in this forum
You cannot edit your posts in this forum
You cannot delete your posts in this forum
You cannot post attachments in this forum

Search for:
Яндекс.Метрика
Powered by phpBB © 2000, 2002, 2005, 2007 phpBB Group