\m/ 80's metal \m/

Информационно-аналитический форум "80 см пыли" (In Search We Trust) "У нас никто никуда не спешит"
Me For You - http://me-4u.com
It is currently 19 Jul 2019

All times are UTC + 3 hours

Spoiler
Chat - temporary registration for foreign users (please leave your application here)







Post new topic Reply to topic  [ 99 posts ]  Go to page Previous  1, 2, 3, 4, 5  Next
Author Message
 
PostPosted: 02 Apr 2009 
Персональный статус
Joined: 30 Aug 2008
Posts: 335
Lоcаtion: Львов
Age: 45
Name: .Алексей
> Осталось найти: | Still looking:
Outrage - 2002 - 24-7
Outrage - 2013 - Outraged


Top
 Profile E-mail  
 
 
PostPosted: 09 Oct 2009 
Генеральный thrasher
User avatar
Joined: 03 Oct 2008
Posts: 3714
Lоcаtion: Ханты-Мансийский АО
Age: 44
Name: Сергей
Image

Album: Life Until Deaf
Year: 1995
Style: Thrash Metal
Country: Japan
Format: mp3
Quality: VBR 224-320
Size: 83Mb

Tracklist:
1. Megalomania 04:59
2. Vanishing Fully From the World 05:42
3. Undertrow 05:57
4. Midnite Carnival 04:42
5. In Union with Earth 08:46
6. Echo 03:08
7. Draggin' Me Down 06:40
8. You Suck 02:53
9. Concrete Mirror 03:36
10. Argument 04:38
11. Live Until Deaf 05:25
12. Popcorn Song 00:30

Скачать


Top
 Profile  
 
 
PostPosted: 18 Oct 2009 
Работнечег
User avatar
Joined: 28 Aug 2007
Posts: 5919
Lоcаtion: г. Москва
Age: 30
Name: Дима
Outrage - Cause For Pause (2004) VBR

Image

Tracklist:
1. Bleed Out 04:42
2. Deadbeat 02:54
3. Outta Change 02:31
4. China Doll 05:58
5. Cat & Nines 03:37
6. Do it Again 02:36
7. Annihilist Existentialist 04:51
8. Mental Asylum 02:32
9. I Can See for Miles 04:52
10. Big Mouth 04:42
11. Hit and Run 04:11
12. La Luna del Desierto 08:32
Total playing time 51:58

http://www.ifolder.ru/14481763

Альбом не понравился.Какое-то подобие трэша с большой долей грува, имхо.Вообще только для коллекции.
P.S. Осталось найти 24-7 (2002).Кажись товарищ ulver объявился, может уже и нашёл всё.Надеюсь заглянет в эту темку...


Top
 Profile E-mail  
 
 
PostPosted: 21 Oct 2009 
Персональный статус
Joined: 30 Aug 2008
Posts: 335
Lоcаtion: Львов
Age: 45
Name: .Алексей
Всем громадные благодарности за труды! :meloman:


Top
 Profile E-mail  
 
 
PostPosted: 21 Oct 2009 
Персональный статус
Joined: 30 Aug 2008
Posts: 335
Lоcаtion: Львов
Age: 45
Name: .Алексей
2002 нужен, спасибо!


Top
 Profile E-mail  
 
 
PostPosted: 21 Oct 2009 
Персональный статус
Joined: 30 Aug 2008
Posts: 335
Lоcаtion: Львов
Age: 45
Name: .Алексей
еще нету Outrage - The Great Blue (1990) ?


Top
 Profile E-mail  
 
 
PostPosted: 21 Oct 2009 
Генеральный thrasher
User avatar
Joined: 03 Oct 2008
Posts: 3714
Lоcаtion: Ханты-Мансийский АО
Age: 44
Name: Сергей
ulver73 wrote:
еще нету Outrage - The Great Blue (1990) ?


Есть.Надо что-ли?


Top
 Profile  
 
 
PostPosted: 22 Oct 2009 
Персональный статус
Joined: 30 Aug 2008
Posts: 335
Lоcаtion: Львов
Age: 45
Name: .Алексей
надо!


Top
 Profile E-mail  
 
 
PostPosted: 23 Oct 2009 
Генеральный thrasher
User avatar
Joined: 03 Oct 2008
Posts: 3714
Lоcаtion: Ханты-Мансийский АО
Age: 44
Name: Сергей
Image

Year: 1990
Style: Thrash Metal
Country: Japan
Format: mp3 320kbps
Size: 122Mb

Tracklist:
1. Just Believe in Me 05:21
2. Rusty Door 04:21
3. Fall to Disorder 06:17
4. The Day of Rage 04:03
5. Voyage of... 01:43
6. ..Clay Liner 06:33
7. The Truth 04:59
8. Great Blue 08:39
9. Bearing Down 03:44
10. I Feel Alright (bonus) 02:47
11. Blitzkrieg Bop (bonus) (The Ramones Cover ) 02:02

Megaupload


Top
 Profile  
 
 
PostPosted: 14 Jan 2011 
Rara avis
User avatar
Joined: 27 Jan 2009
Posts: 5160
Name: .
Outrage - 2004 - Cause for Pause
http://www.mediafire.com/?mzz4gtkymnd#2


Top
 Profile E-mail  
 
 
PostPosted: 14 Jan 2011 
А может смените мне статус?..
User avatar
Joined: 02 Feb 2009
Posts: 999
Lоcаtion: из Тулы
Age: 45
Name: Максим
а теперь лосей бы всех собрать

_________________
КМА


Top
 Profile  
 
 
PostPosted: 13 Mar 2015 
Генеральный thrasher
User avatar
Joined: 03 Oct 2008
Posts: 3714
Lоcаtion: Ханты-Мансийский АО
Age: 44
Name: Сергей
Пока нахожусь в отпуске,решил потихоньку оформить подобие дискографии этих замечательных японцев для всех моих друзей на данном сайте.В принципе,при желании,эти рипы можно отыскать у Оксаны или на трэкере.Но пусть всё будет в одном месте.Все рипы с моих дисков - это сто процентов.Остальное буду добавлять!

Image

Year:1988 (1991 Re-Issue)
Style:Speed/Thrash Metal
Country:Japan
Audio:Flac+Cue+Log+Scans
Size:336Mb
Source:my CD
Label:Polydor
Catalog ID:POCP-1156

Tracklist:
01. Curtain Of History 05:42
02. Under Control Of Law 03:50
03. Slowly But Surely 04:52
04. Black Clouds 06:54
05. Bring Him Back 07:35
06. Eos 00:57
07. Edge Of Death 07:24
08. Peyote 05:58
"Cue"
REM GENRE "Thrash Metal"
REM DATE 1988
REM DISCID 7C0A2408
REM COMMENT "ExactAudioCopy v0.99pb5"
PERFORMER "OUTRAGE"
TITLE "Black Clouds"
FILE "OUTRAGE - Black Clouds.flac" WAVE
TRACK 01 AUDIO
TITLE "Curtain Of History"
PERFORMER "OUTRAGE"
INDEX 00 00:00:00
INDEX 01 00:00:37
TRACK 02 AUDIO
TITLE "Under Control Of Law"
PERFORMER "OUTRAGE"
INDEX 01 05:43:15
TRACK 03 AUDIO
TITLE "Slowly But Surely"
PERFORMER "OUTRAGE"
INDEX 01 09:33:65
TRACK 04 AUDIO
TITLE "Black Clouds"
PERFORMER "OUTRAGE"
INDEX 01 14:26:20
TRACK 05 AUDIO
TITLE "Bring Him Back"
PERFORMER "OUTRAGE"
INDEX 01 21:21:02
TRACK 06 AUDIO
TITLE "Eos"
PERFORMER "OUTRAGE"
INDEX 01 28:56:47
TRACK 07 AUDIO
TITLE "Edge Of Death"
PERFORMER "OUTRAGE"
INDEX 01 29:53:62
TRACK 08 AUDIO
TITLE "Peyote"
PERFORMER "OUTRAGE"
INDEX 01 37:17:72

"Log"
Exact Audio Copy V0.99 prebeta 5 from 4. May 2009

Отчёт EAC об извлечении, выполненном 7. апреля 2014, 11:02

OUTRAGE / Black Clouds

Дисковод: MATSHITADVD-RAM UJ8A0AS Adapter: 0 ID: 1

Режим чтения : Достоверность
Использование точного потока : Да
Отключение кэша аудио : Да
Использование указателей C2 : Нет

Коррекция смещения при чтении : 102
Способность читать области Lead-in и Lead-out : Нет
Заполнение пропущенных сэмплов тишиной : Да
Удаление блоков с тишиной в начале и конце : Нет
При вычислениях CRC использовались нулевые сэмплы : Да
Интерфейс : Встроенный Win32-интерфейс для Win NT/2000

Выходной формат : Пользовательский кодировщик
Выбранный битрейт : 1024 kBit/s
Качество : Высокий
Добавление ID3-тэга : Нет
Утилита сжатия : C:\Program Files\Exact Audio Copy\FLAC\FLAC.EXE
Дополнительные параметры : -6 -V -T "ARTIST=%a" -T "TITLE=%t" -T "ALBUM=%g" -T "DATE=%y" -T "TRACKNUMBER=%n" -T "GENRE=%m" -T "COMMENT=%e" %s -o %d


TOC извлечённого CD

Трек | Старт | Длительность | Начальный сектор | Конечный сектор
---------------------------------------------------------------------
1 | 0:00.37 | 5:42.53 | 37 | 25739
2 | 5:43.15 | 3:50.50 | 25740 | 43039
3 | 9:33.65 | 4:52.30 | 43040 | 64969
4 | 14:26.20 | 6:54.57 | 64970 | 96076
5 | 21:21.02 | 7:35.45 | 96077 | 130246
6 | 28:56.47 | 0:57.15 | 130247 | 134536
7 | 29:53.62 | 7:24.10 | 134537 | 167846
8 | 37:17.72 | 5:58.15 | 167847 | 194711


Характеристики диапазона извлечения и сообщения об ошибках

Выбранный диапазон

Имя файла C:\Users\эксперт\Music\OUTRAGE - Black Clouds.wav

Пиковый уровень 100.0 %
Качество диапазона 100.0 %
CRC копии 02310AE9
Копирование... OK

Ошибок не произошло


AccurateRip: сводка

Трек 1 нет в базе данных
Трек 2 нет в базе данных
Трек 3 нет в базе данных
Трек 4 нет в базе данных
Трек 5 нет в базе данных
Трек 6 нет в базе данных
Трек 7 нет в базе данных
Трек 8 нет в базе данных

Ни одного трека нет в базе AccurateRip

Конец отчёта


Black Clouds

Image

Year:1990 (1991 Re-Issue)
Style:Speed/Thrash Metal
Country:Japan
Audio:Flac+Cue+Log+Scans
Size:346Mb
Source:my CD
Label:Polydor
Catalog ID:POCP-1158

Tracklist:
01. Just Believe In Me 05:21
02. Rusty Door 04:20
03. Fall To Disorder 06:16
04. The Day Of Rage 04:02
05. Voyage Of... 01:43
06. ...Clay Liner 06:33
07. The Truth 04:58
08. Great Blue 08:39
09. Bearing Down 03:43
"Cue"
REM GENRE "Thrash Metal"
REM DATE 1990
REM DISCID 710AB509
REM COMMENT "ExactAudioCopy v0.99pb5"
PERFORMER "OUTRAGE"
TITLE "The Great Blue"
FILE "OUTRAGE - The Great Blue.flac" WAVE
TRACK 01 AUDIO
TITLE "Just Believe In Me"
PERFORMER "OUTRAGE"
INDEX 00 00:00:00
INDEX 01 00:00:37
TRACK 02 AUDIO
TITLE "Rusty Door"
PERFORMER "OUTRAGE"
INDEX 01 05:21:47
TRACK 03 AUDIO
TITLE "Fall To Disorder"
PERFORMER "OUTRAGE"
INDEX 00 09:41:53
INDEX 01 09:42:37
TRACK 04 AUDIO
TITLE "The Day Of Rage"
PERFORMER "OUTRAGE"
INDEX 01 15:59:07
TRACK 05 AUDIO
TITLE "Voyage Of ..."
PERFORMER "OUTRAGE"
INDEX 01 20:01:72
TRACK 06 AUDIO
TITLE "... Clay Liner"
PERFORMER "OUTRAGE"
INDEX 01 21:45:35
TRACK 07 AUDIO
TITLE "The Truth"
PERFORMER "OUTRAGE"
INDEX 01 28:18:62
TRACK 08 AUDIO
TITLE "Great Blue"
PERFORMER "OUTRAGE"
INDEX 01 33:17:45
TRACK 09 AUDIO
TITLE "Bearing Down"
PERFORMER "OUTRAGE"
INDEX 01 41:57:12

"Log"
Exact Audio Copy V0.99 prebeta 5 from 4. May 2009

Отчёт EAC об извлечении, выполненном 26. апреля 2014, 16:53

OUTRAGE / The Great Blue

Дисковод: MATSHITADVD-RAM UJ8A0AS Adapter: 0 ID: 1

Режим чтения : Достоверность
Использование точного потока : Да
Отключение кэша аудио : Да
Использование указателей C2 : Нет

Коррекция смещения при чтении : 102
Способность читать области Lead-in и Lead-out : Нет
Заполнение пропущенных сэмплов тишиной : Да
Удаление блоков с тишиной в начале и конце : Нет
При вычислениях CRC использовались нулевые сэмплы : Да
Интерфейс : Встроенный Win32-интерфейс для Win NT/2000

Выходной формат : Пользовательский кодировщик
Выбранный битрейт : 1024 kBit/s
Качество : Высокий
Добавление ID3-тэга : Нет
Утилита сжатия : C:\Program Files\Exact Audio Copy\FLAC\FLAC.EXE
Дополнительные параметры : -6 -V -T "ARTIST=%a" -T "TITLE=%t" -T "ALBUM=%g" -T "DATE=%y" -T "TRACKNUMBER=%n" -T "GENRE=%m" -T "COMMENT=%e" %s -o %d


TOC извлечённого CD

Трек | Старт | Длительность | Начальный сектор | Конечный сектор
---------------------------------------------------------------------
1 | 0:00.37 | 5:21.10 | 37 | 24121
2 | 5:21.47 | 4:20.65 | 24122 | 43686
3 | 9:42.37 | 6:16.45 | 43687 | 71931
4 | 15:59.07 | 4:02.65 | 71932 | 90146
5 | 20:01.72 | 1:43.38 | 90147 | 97909
6 | 21:45.35 | 6:33.27 | 97910 | 127411
7 | 28:18.62 | 4:58.58 | 127412 | 149819
8 | 33:17.45 | 8:39.42 | 149820 | 188786
9 | 41:57.12 | 3:43.63 | 188787 | 205574


Характеристики диапазона извлечения и сообщения об ошибках

Выбранный диапазон

Имя файла C:\Users\эксперт\Music\OUTRAGE - The Great Blue.wav

Пиковый уровень 100.0 %
Качество диапазона 100.0 %
CRC копии 3728D517
Копирование... OK

Ошибок не произошло


AccurateRip: сводка

Трек 1 нет в базе данных
Трек 2 нет в базе данных
Трек 3 нет в базе данных
Трек 4 нет в базе данных
Трек 5 нет в базе данных
Трек 6 нет в базе данных
Трек 7 нет в базе данных
Трек 8 нет в базе данных
Трек 9 нет в базе данных

Ни одного трека нет в базе AccurateRip

Конец отчёта


The Great Blue

Image

Year:1991
Style:Speed/Thrash Metal
Country:Japan
Audio:Flac+Cue+Log+Scans
Size:291Mb
Source:my CD
Label:Polydor
Catalog ID:511868-2

Tracklist:
01. My Final Day 04:38
02. Madness 04:05
03. Follow 05:38
04. Wings 04:00
05. Sad Survivor 03:57
06. Visions 04:31
07. Veild Sky 05:38
08. River 04:52
09. Fangs 04:09
"Cue"
REM GENRE "Thrash Metal"
REM DATE 1991
REM DISCID 6C09BD09
REM COMMENT "ExactAudioCopy v0.99pb5"
PERFORMER "Outrage"
TITLE "The Final Day"
FILE "Outrage - The Final Day.flac" WAVE
TRACK 01 AUDIO
TITLE "My final Day"
PERFORMER "Outrage"
INDEX 00 00:00:00
INDEX 01 00:00:33
TRACK 02 AUDIO
TITLE "Madness"
PERFORMER "Outrage"
INDEX 01 04:39:23
TRACK 03 AUDIO
TITLE "Follow"
PERFORMER "Outrage"
INDEX 01 08:44:65
TRACK 04 AUDIO
TITLE "Wings"
PERFORMER "Outrage"
INDEX 01 14:23:43
TRACK 05 AUDIO
TITLE "Sad Survivor"
PERFORMER "Outrage"
INDEX 01 18:24:40
TRACK 06 AUDIO
TITLE "Visions"
PERFORMER "Outrage"
INDEX 01 22:21:43
TRACK 07 AUDIO
TITLE "Veild Sky"
PERFORMER "Outrage"
INDEX 01 26:53:40
TRACK 08 AUDIO
TITLE "River"
PERFORMER "Outrage"
INDEX 01 32:31:40
TRACK 09 AUDIO
TITLE "Fangs"
PERFORMER "Outrage"
INDEX 01 37:23:60

"Log"
Exact Audio Copy V0.99 prebeta 5 from 4. May 2009

Отчёт EAC об извлечении, выполненном 2. ноября 2013, 9:05

Outrage / The Final Day

Дисковод: MATSHITADVD-RAM UJ8A0AS Adapter: 0 ID: 1

Режим чтения : Достоверность
Использование точного потока : Да
Отключение кэша аудио : Да
Использование указателей C2 : Нет

Коррекция смещения при чтении : 102
Способность читать области Lead-in и Lead-out : Нет
Заполнение пропущенных сэмплов тишиной : Да
Удаление блоков с тишиной в начале и конце : Нет
При вычислениях CRC использовались нулевые сэмплы : Да
Интерфейс : Встроенный Win32-интерфейс для Win NT/2000

Выходной формат : Пользовательский кодировщик
Выбранный битрейт : 1024 kBit/s
Качество : Высокий
Добавление ID3-тэга : Нет
Утилита сжатия : C:\Program Files\Exact Audio Copy\FLAC\FLAC.EXE
Дополнительные параметры : -6 -V -T "ARTIST=%a" -T "TITLE=%t" -T "ALBUM=%g" -T "DATE=%y" -T "TRACKNUMBER=%n" -T "GENRE=%m" -T "COMMENT=%e" %s -o %d


TOC извлечённого CD

Трек | Старт | Длительность | Начальный сектор | Конечный сектор
---------------------------------------------------------------------
1 | 0:00.33 | 4:38.65 | 33 | 20947
2 | 4:39.23 | 4:05.42 | 20948 | 39364
3 | 8:44.65 | 5:38.53 | 39365 | 64767
4 | 14:23.43 | 4:00.72 | 64768 | 82839
5 | 18:24.40 | 3:57.03 | 82840 | 100617
6 | 22:21.43 | 4:31.72 | 100618 | 121014
7 | 26:53.40 | 5:38.00 | 121015 | 146364
8 | 32:31.40 | 4:52.20 | 146365 | 168284
9 | 37:23.60 | 4:09.48 | 168285 | 187007


Характеристики диапазона извлечения и сообщения об ошибках

Выбранный диапазон

Имя файла C:\Users\эксперт\Music\Outrage - The Final Day.wav

Пиковый уровень 100.0 %
Качество диапазона 100.0 %
CRC копии B2832E46
Копирование... OK

Ошибок не произошло


AccurateRip: сводка

Трек 1 точное извлечение (доверие 2) [58381243]
Трек 2 точное извлечение (доверие 2) [D0408775]
Трек 3 точное извлечение (доверие 2) [60FE806E]
Трек 4 точное извлечение (доверие 2) [578431C7]
Трек 5 точное извлечение (доверие 2) [448C77CE]
Трек 6 точное извлечение (доверие 2) [138AD44C]
Трек 7 точное извлечение (доверие 2) [77350505]
Трек 8 точное извлечение (доверие 2) [8346D08B]
Трек 9 точное извлечение (доверие 2) [3347DA81]

Все треки извлечены точно

Конец отчёта


The Final Day

Image

Year:1993
Style:Speed/Thrash Metal
Country:Japan
Audio:Flac+Cue+Log+Scans
Size:354Mb
Source:my CD
Label:East West Japan
Catalog ID:AMCM-4177

Tracklist:
01. Mr. Rightman 03:29
02. Faith 04:43
03. To You 03:30
04. The Smoke 06:25
05. How Bad ? 03:52
06. The Key 05:38
07. Never Make The Same 04:41
08. Live My Life 04:34
09. Inner Strength 05:50
10. Eagle 06:12
"Cue"
REM GENRE "Thrash Metal"
REM DATE 1993
REM DISCID 690B7D0A
REM COMMENT "ExactAudioCopy v0.99pb5"
PERFORMER "OUTRAGE"
TITLE "Spit"
FILE "OUTRAGE - Spit.flac" WAVE
TRACK 01 AUDIO
TITLE "Mr. Rightman"
PERFORMER "OUTRAGE"
INDEX 01 00:00:00
TRACK 02 AUDIO
TITLE "Faith"
PERFORMER "OUTRAGE"
INDEX 01 03:29:37
TRACK 03 AUDIO
TITLE "To You"
PERFORMER "OUTRAGE"
INDEX 01 08:12:52
TRACK 04 AUDIO
TITLE "The Smoke"
PERFORMER "OUTRAGE"
INDEX 01 11:42:60
TRACK 05 AUDIO
TITLE "How Bad ?"
PERFORMER "OUTRAGE"
INDEX 01 18:08:17
TRACK 06 AUDIO
TITLE "The Key"
PERFORMER "OUTRAGE"
INDEX 00 21:59:40
INDEX 01 22:00:67
TRACK 07 AUDIO
TITLE "Never Make The Same"
PERFORMER "OUTRAGE"
INDEX 01 27:39:22
TRACK 08 AUDIO
TITLE "Live My Life"
PERFORMER "OUTRAGE"
INDEX 00 32:20:35
INDEX 01 32:23:27
TRACK 09 AUDIO
TITLE "Inner Strength"
PERFORMER "OUTRAGE"
INDEX 01 36:58:02
TRACK 10 AUDIO
TITLE "Eagle"
PERFORMER "OUTRAGE"
INDEX 01 42:48:47

"Log"
Exact Audio Copy V0.99 prebeta 5 from 4. May 2009

Отчёт EAC об извлечении, выполненном 3. ноября 2012, 16:25

OUTRAGE / Spit

Дисковод: MATSHITADVD-RAM UJ8A0AS Adapter: 0 ID: 1

Режим чтения : Достоверность
Использование точного потока : Да
Отключение кэша аудио : Да
Использование указателей C2 : Нет

Коррекция смещения при чтении : 102
Способность читать области Lead-in и Lead-out : Нет
Заполнение пропущенных сэмплов тишиной : Да
Удаление блоков с тишиной в начале и конце : Нет
При вычислениях CRC использовались нулевые сэмплы : Да
Интерфейс : Встроенный Win32-интерфейс для Win NT/2000

Выходной формат : Пользовательский кодировщик
Выбранный битрейт : 1024 kBit/s
Качество : Высокий
Добавление ID3-тэга : Нет
Утилита сжатия : C:\Program Files\Exact Audio Copy\FLAC\FLAC.EXE
Дополнительные параметры : -6 -V -T "ARTIST=%a" -T "TITLE=%t" -T "ALBUM=%g" -T "DATE=%y" -T "TRACKNUMBER=%n" -T "GENRE=%m" -T "COMMENT=%e" %s -o %d


TOC извлечённого CD

Трек | Старт | Длительность | Начальный сектор | Конечный сектор
---------------------------------------------------------------------
1 | 0:00.00 | 3:29.37 | 0 | 15711
2 | 3:29.37 | 4:43.15 | 15712 | 36951
3 | 8:12.52 | 3:30.08 | 36952 | 52709
4 | 11:42.60 | 6:25.32 | 52710 | 81616
5 | 18:08.17 | 3:52.50 | 81617 | 99066
6 | 22:00.67 | 5:38.30 | 99067 | 124446
7 | 27:39.22 | 4:44.05 | 124447 | 145751
8 | 32:23.27 | 4:34.50 | 145752 | 166351
9 | 36:58.02 | 5:50.45 | 166352 | 192646
10 | 42:48.47 | 6:13.00 | 192647 | 220621


Характеристики диапазона извлечения и сообщения об ошибках

Выбранный диапазон

Имя файла C:\Users\эксперт\Music\OUTRAGE - Spit.wav

Пиковый уровень 100.0 %
Качество диапазона 100.0 %
CRC копии 5CC5D6B1
Копирование... OK

Ошибок не произошло


AccurateRip: сводка

Трек 1 нет в базе данных
Трек 2 нет в базе данных
Трек 3 нет в базе данных
Трек 4 нет в базе данных
Трек 5 нет в базе данных
Трек 6 нет в базе данных
Трек 7 нет в базе данных
Трек 8 нет в базе данных
Трек 9 нет в базе данных
Трек 10 нет в базе данных

Ни одного трека нет в базе AccurateRip

Конец отчёта


Spit

Image

Year:1995
Style:Speed/Thrash Metal
Country:Japan
Audio:Flac+Cue+Log+Scans
Size:429Mb
Source:my CD
Label:East West Japan
Catalog ID:AMCM-4221

Tracklist:
01. Megalomania 04:59
02. Vanishing Fully From The World 05:42
03. Undertow 05:57
04. Midnite Carnival 04:42
05. In Union With Earth 08:45
06. Echo 03:08
07. Draggin' Me Down (Fear Is) 06:39
08. You Suck 02:53
09. Concrete Mirror 03:35
10. Agument 04:38
11. Live Until You Die 04:32
12. Popcorn Song 00:30
"Cue"
REM GENRE "Thrash Metal"
REM DATE 1995
REM DISCID AB0D5C0C
REM COMMENT "ExactAudioCopy v0.99pb5"
PERFORMER "OUTRAGE"
TITLE "Life Until Deaf"
FILE "OUTRAGE - Life Until Deaf.flac" WAVE
TRACK 01 AUDIO
TITLE "Megalomania"
PERFORMER "OUTRAGE"
INDEX 01 00:00:00
TRACK 02 AUDIO
TITLE "Vanishing Fully From The World"
PERFORMER "OUTRAGE"
INDEX 01 04:59:17
TRACK 03 AUDIO
TITLE "Undertow"
PERFORMER "OUTRAGE"
INDEX 01 10:41:52
TRACK 04 AUDIO
TITLE "Midnite Carnival"
PERFORMER "OUTRAGE"
INDEX 01 16:38:62
TRACK 05 AUDIO
TITLE "In Union With Earth"
PERFORMER "OUTRAGE"
INDEX 01 21:21:32
TRACK 06 AUDIO
TITLE "Echo"
PERFORMER "OUTRAGE"
INDEX 01 30:07:25
TRACK 07 AUDIO
TITLE "Draggin' Me Down (Fear Is)"
PERFORMER "OUTRAGE"
INDEX 01 33:16:07
TRACK 08 AUDIO
TITLE "You Suck"
PERFORMER "OUTRAGE"
INDEX 01 39:56:07
TRACK 09 AUDIO
TITLE "Concrete Mirror"
PERFORMER "OUTRAGE"
INDEX 01 42:49:60
TRACK 10 AUDIO
TITLE "Agument"
PERFORMER "OUTRAGE"
INDEX 01 46:25:47
TRACK 11 AUDIO
TITLE "Live Until You Die"
PERFORMER "OUTRAGE"
INDEX 01 51:04:02
TRACK 12 AUDIO
TITLE "Popcorn Song"
PERFORMER "OUTRAGE"
INDEX 00 55:36:35
INDEX 01 56:29:30

"Log"
Exact Audio Copy V0.99 prebeta 5 from 4. May 2009

Отчёт EAC об извлечении, выполненном 17. января 2014, 15:30

OUTRAGE / Life Until Deaf

Дисковод: MATSHITADVD-RAM UJ8A0AS Adapter: 0 ID: 1

Режим чтения : Достоверность
Использование точного потока : Да
Отключение кэша аудио : Да
Использование указателей C2 : Нет

Коррекция смещения при чтении : 102
Способность читать области Lead-in и Lead-out : Нет
Заполнение пропущенных сэмплов тишиной : Да
Удаление блоков с тишиной в начале и конце : Нет
При вычислениях CRC использовались нулевые сэмплы : Да
Интерфейс : Встроенный Win32-интерфейс для Win NT/2000

Выходной формат : Пользовательский кодировщик
Выбранный битрейт : 1024 kBit/s
Качество : Высокий
Добавление ID3-тэга : Нет
Утилита сжатия : C:\Program Files\Exact Audio Copy\FLAC\FLAC.EXE
Дополнительные параметры : -6 -V -T "ARTIST=%a" -T "TITLE=%t" -T "ALBUM=%g" -T "DATE=%y" -T "TRACKNUMBER=%n" -T "GENRE=%m" -T "COMMENT=%e" %s -o %d


TOC извлечённого CD

Трек | Старт | Длительность | Начальный сектор | Конечный сектор
---------------------------------------------------------------------
1 | 0:00.00 | 4:59.17 | 0 | 22441
2 | 4:59.17 | 5:42.35 | 22442 | 48126
3 | 10:41.52 | 5:57.10 | 48127 | 74911
4 | 16:38.62 | 4:42.45 | 74912 | 96106
5 | 21:21.32 | 8:45.68 | 96107 | 135549
6 | 30:07.25 | 3:08.57 | 135550 | 149706
7 | 33:16.07 | 6:40.00 | 149707 | 179706
8 | 39:56.07 | 2:53.53 | 179707 | 192734
9 | 42:49.60 | 3:35.62 | 192735 | 208921
10 | 46:25.47 | 4:38.30 | 208922 | 229801
11 | 51:04.02 | 5:25.28 | 229802 | 254204
12 | 56:29.30 | 0:30.47 | 254205 | 256501


Характеристики диапазона извлечения и сообщения об ошибках

Выбранный диапазон

Имя файла C:\Users\эксперт\Music\OUTRAGE - Life Until Deaf.wav

Пиковый уровень 100.0 %
Качество диапазона 100.0 %
CRC копии EC0482CE
Копирование... OK

Ошибок не произошло


AccurateRip: сводка

Трек 1 точность не определена (достоверность 2) [959001E4], AccurateRip вернул [F27D002B]
Трек 2 точность не определена (достоверность 3) [97900CCC], AccurateRip вернул [36747821]
Трек 3 точность не определена (достоверность 3) [3942F33F], AccurateRip вернул [E823145A]
Трек 4 точность не определена (достоверность 3) [B1F83003], AccurateRip вернул [3516E460]
Трек 5 точность не определена (достоверность 3) [D75FEED4], AccurateRip вернул [B29B6909]
Трек 6 точность не определена (достоверность 3) [97A4FE13], AccurateRip вернул [6F763A57]
Трек 7 точность не определена (достоверность 3) [224B305F], AccurateRip вернул [D04FAB06]
Трек 8 точность не определена (достоверность 3) [E23E3009], AccurateRip вернул [5DD1C4A9]
Трек 9 точность не определена (достоверность 3) [A40FD6B9], AccurateRip вернул [13BDB65E]
Трек 10 точность не определена (достоверность 3) [62A914A4], AccurateRip вернул [6023A9B0]
Трек 11 точность не определена (достоверность 3) [B62F57A8], AccurateRip вернул [3BA345D1]
Трек 12 точность не определена (достоверность 3) [86A0B514], AccurateRip вернул [ED7BB0FF]

Ни один трек не прошёл проверки на точность
В вашей базе может быть иной вариант штамповки диска

Конец отчёта

Life Until Deaf

Image

Year:1997
Style:Speed/Thrash Metal
Country:Japan
Audio:Flac+Cue+Log+Scans
Size:399Mb
Source:my CD
Label:East West Japan
Catalog ID:AMCM-4281

Tracklist:
01. Broken Man 03:50
02. Let My Ass Go 04:06
03. The Ladder 04:15
04. After All 06:33
05. World Slow Down 03:26
06. Stuck Together 04:45
07. Shadow 04:00
08. We Suck 02:12
09. Descent 04:55
10. Who We Are 01:47
11. Lash Me To The Wheel 05:43
12. Donkey Ride 06:17
"Cue"
REM GENRE "Thrash Metal"
REM DATE 1997
REM DISCID B00C2B0C
REM COMMENT "ExactAudioCopy v0.99pb5"
PERFORMER "OUTRAGE"
TITLE "Who We Are"
FILE "OUTRAGE - Who We Are.flac" WAVE
TRACK 01 AUDIO
TITLE "Broken Man"
PERFORMER "OUTRAGE"
INDEX 01 00:00:00
TRACK 02 AUDIO
TITLE "Let My Ass Go"
PERFORMER "OUTRAGE"
INDEX 01 03:50:27
TRACK 03 AUDIO
TITLE "The Ladder"
PERFORMER "OUTRAGE"
INDEX 01 07:56:47
TRACK 04 AUDIO
TITLE "After All"
PERFORMER "OUTRAGE"
INDEX 01 12:12:27
TRACK 05 AUDIO
TITLE "World Slow Down"
PERFORMER "OUTRAGE"
INDEX 01 18:45:30
TRACK 06 AUDIO
TITLE "Stuck Together"
PERFORMER "OUTRAGE"
INDEX 00 22:10:27
INDEX 01 22:12:15
TRACK 07 AUDIO
TITLE "Shadow"
PERFORMER "OUTRAGE"
INDEX 01 26:57:40
TRACK 08 AUDIO
TITLE "We Suck"
PERFORMER "OUTRAGE"
INDEX 01 30:57:65
TRACK 09 AUDIO
TITLE "Descent"
PERFORMER "OUTRAGE"
INDEX 01 33:09:65
TRACK 10 AUDIO
TITLE "Who We Are"
PERFORMER "OUTRAGE"
INDEX 01 38:05:27
TRACK 11 AUDIO
TITLE "Lash Me To The Wheel"
PERFORMER "OUTRAGE"
INDEX 00 39:52:60
INDEX 01 39:54:42
TRACK 12 AUDIO
TITLE "Donkey Ride"
PERFORMER "OUTRAGE"
INDEX 01 45:38:00

"Log"
Exact Audio Copy V0.99 prebeta 5 from 4. May 2009

Отчёт EAC об извлечении, выполненном 3. ноября 2012, 15:14

OUTRAGE / Who We Are

Дисковод: MATSHITADVD-RAM UJ8A0AS Adapter: 0 ID: 1

Режим чтения : Достоверность
Использование точного потока : Да
Отключение кэша аудио : Да
Использование указателей C2 : Нет

Коррекция смещения при чтении : 102
Способность читать области Lead-in и Lead-out : Нет
Заполнение пропущенных сэмплов тишиной : Да
Удаление блоков с тишиной в начале и конце : Нет
При вычислениях CRC использовались нулевые сэмплы : Да
Интерфейс : Встроенный Win32-интерфейс для Win NT/2000

Выходной формат : Пользовательский кодировщик
Выбранный битрейт : 1024 kBit/s
Качество : Высокий
Добавление ID3-тэга : Нет
Утилита сжатия : C:\Program Files\Exact Audio Copy\FLAC\FLAC.EXE
Дополнительные параметры : -6 -V -T "ARTIST=%a" -T "TITLE=%t" -T "ALBUM=%g" -T "DATE=%y" -T "TRACKNUMBER=%n" -T "GENRE=%m" -T "COMMENT=%e" %s -o %d


TOC извлечённого CD

Трек | Старт | Длительность | Начальный сектор | Конечный сектор
---------------------------------------------------------------------
1 | 0:00.00 | 3:50.27 | 0 | 17276
2 | 3:50.27 | 4:06.20 | 17277 | 35746
3 | 7:56.47 | 4:15.55 | 35747 | 54926
4 | 12:12.27 | 6:33.03 | 54927 | 84404
5 | 18:45.30 | 3:26.60 | 84405 | 99914
6 | 22:12.15 | 4:45.25 | 99915 | 121314
7 | 26:57.40 | 4:00.25 | 121315 | 139339
8 | 30:57.65 | 2:12.00 | 139340 | 149239
9 | 33:09.65 | 4:55.37 | 149240 | 171401
10 | 38:05.27 | 1:49.15 | 171402 | 179591
11 | 39:54.42 | 5:43.33 | 179592 | 205349
12 | 45:38.00 | 6:17.25 | 205350 | 233649


Характеристики диапазона извлечения и сообщения об ошибках

Выбранный диапазон

Имя файла C:\Users\эксперт\Music\OUTRAGE - Who We Are.wav

Пиковый уровень 98.7 %
Качество диапазона 100.0 %
CRC копии ADEB0B92
Копирование... OK

Ошибок не произошло


AccurateRip: сводка

Трек 1 нет в базе данных
Трек 2 нет в базе данных
Трек 3 нет в базе данных
Трек 4 нет в базе данных
Трек 5 нет в базе данных
Трек 6 нет в базе данных
Трек 7 нет в базе данных
Трек 8 нет в базе данных
Трек 9 нет в базе данных
Трек 10 нет в базе данных
Трек 11 нет в базе данных
Трек 12 нет в базе данных

Ни одного трека нет в базе AccurateRip

Конец отчёта


Who We Are

Image

Year:2009
Style:Speed/Thrash Metal
Country:Japan
Audio:Flac+Cue+Log+Scans
Size:330Mb
Source:my CD
Label:Victor Entertainment
Catalog ID:VICP-64779

Tracklist:
01. Rise 04:24
02. You Care? I Don't Care 03:59
03. Reign 05:26
04. Until You Are Dead 04:18
05. Fists Full Of Sand 04:05
06. Shells Rain Down 03:49
07. Landshark 02:48
08. Shine On 06:06
09. Tor 02:46
10. Terrorizer 03:45
"Cue"
REM GENRE "Thrash Metal"
REM DATE 2009
REM DISCID 8609B90A
REM COMMENT "ExactAudioCopy v0.99pb5"
PERFORMER "OUTRAGE"
TITLE "Outrage"
FILE "OUTRAGE - Outrage.flac" WAVE
TRACK 01 AUDIO
TITLE "Rise"
PERFORMER "OUTRAGE"
INDEX 01 00:00:00
TRACK 02 AUDIO
TITLE "You Care? I Don't Care"
PERFORMER "OUTRAGE"
INDEX 01 04:24:01
TRACK 03 AUDIO
TITLE "Reign"
PERFORMER "OUTRAGE"
INDEX 01 08:23:04
TRACK 04 AUDIO
TITLE "Until You Are Dead"
PERFORMER "OUTRAGE"
INDEX 01 13:49:52
TRACK 05 AUDIO
TITLE "Fists Full Of Sand"
PERFORMER "OUTRAGE"
INDEX 01 18:07:67
TRACK 06 AUDIO
TITLE "Shells Rain Down"
PERFORMER "OUTRAGE"
INDEX 01 22:13:22
TRACK 07 AUDIO
TITLE "Landshark"
PERFORMER "OUTRAGE"
INDEX 01 26:03:19
TRACK 08 AUDIO
TITLE "Shine On"
PERFORMER "OUTRAGE"
INDEX 01 28:51:22
TRACK 09 AUDIO
TITLE "Tor"
PERFORMER "OUTRAGE"
INDEX 01 34:57:31
TRACK 10 AUDIO
TITLE "Terrorizer"
PERFORMER "OUTRAGE"
INDEX 01 37:43:60

"Log"
Exact Audio Copy V0.99 prebeta 5 from 4. May 2009

Отчёт EAC об извлечении, выполненном 14. марта 2015, 10:46

OUTRAGE / Outrage

Дисковод: MATSHITADVD-RAM UJ8A0AS Adapter: 0 ID: 1

Режим чтения : Достоверность
Использование точного потока : Да
Отключение кэша аудио : Да
Использование указателей C2 : Нет

Коррекция смещения при чтении : 102
Способность читать области Lead-in и Lead-out : Нет
Заполнение пропущенных сэмплов тишиной : Да
Удаление блоков с тишиной в начале и конце : Нет
При вычислениях CRC использовались нулевые сэмплы : Да
Интерфейс : Встроенный Win32-интерфейс для Win NT/2000

Выходной формат : Пользовательский кодировщик
Выбранный битрейт : 1024 kBit/s
Качество : Высокий
Добавление ID3-тэга : Нет
Утилита сжатия : C:\Program Files\Exact Audio Copy\FLAC\FLAC.EXE
Дополнительные параметры : -6 -V -T "ARTIST=%a" -T "TITLE=%t" -T "ALBUM=%g" -T "DATE=%y" -T "TRACKNUMBER=%n" -T "GENRE=%m" -T "COMMENT=%e" %s -o %d


TOC извлечённого CD

Трек | Старт | Длительность | Начальный сектор | Конечный сектор
---------------------------------------------------------------------
1 | 0:00.00 | 4:24.01 | 0 | 19800
2 | 4:24.01 | 3:59.03 | 19801 | 37728
3 | 8:23.04 | 5:26.48 | 37729 | 62226
4 | 13:49.52 | 4:18.15 | 62227 | 81591
5 | 18:07.67 | 4:05.30 | 81592 | 99996
6 | 22:13.22 | 3:49.72 | 99997 | 117243
7 | 26:03.19 | 2:48.03 | 117244 | 129846
8 | 28:51.22 | 6:06.09 | 129847 | 157305
9 | 34:57.31 | 2:46.29 | 157306 | 169784
10 | 37:43.60 | 3:45.65 | 169785 | 186724


Характеристики диапазона извлечения и сообщения об ошибках

Выбранный диапазон

Имя файла C:\Users\эксперт\Music\OUTRAGE - Outrage.wav

Пиковый уровень 100.0 %
Качество диапазона 100.0 %
CRC копии 3F823D9B
Копирование... OK

Ошибок не произошло


AccurateRip: сводка

Трек 1 точность не определена (достоверность 1) [913EC45F], AccurateRip вернул [1A1D351B]
Трек 2 точность не определена (достоверность 1) [0B021A67], AccurateRip вернул [C1770473]
Трек 3 точность не определена (достоверность 1) [96349C30], AccurateRip вернул [D61492C8]
Трек 4 точность не определена (достоверность 1) [3835A4BD], AccurateRip вернул [C90C139D]
Трек 5 точность не определена (достоверность 1) [ED622416], AccurateRip вернул [085EF96C]
Трек 6 точность не определена (достоверность 1) [50BC70E1], AccurateRip вернул [F34D7005]
Трек 7 точность не определена (достоверность 1) [2265B757], AccurateRip вернул [5D7455BD]
Трек 8 точность не определена (достоверность 1) [59134A5B], AccurateRip вернул [B1FCAB33]
Трек 9 точность не определена (достоверность 1) [9AB62735], AccurateRip вернул [47E9000F]
Трек 10 точность не определена (достоверность 1) [A9F0413E], AccurateRip вернул [D5E93708]

Ни один трек не прошёл проверки на точность
В вашей базе может быть иной вариант штамповки диска

Конец отчёта


Outrage


Last edited by thorbeorn on 14 Mar 2015, edited 1 time in total.

Top
 Profile  
 
 
PostPosted: 13 Mar 2015 
Прокъмитолист
User avatar
Joined: 12 Aug 2007
Posts: 6576
Lоcаtion: Санктъ-Петербуркъ
Age: 51
Name: Олекъ
ойёй... круть какая... вроде и были у меня уже рипы, но вот не помню все ли альбомы, а если не все, то какие именно. буду разбираться.
спасибо, Серёга! :thanx: :true:

_________________
прокъметол - это музыко, от которово есть прок (ы)


Top
 Profile  
 
 
PostPosted: 13 Mar 2015 
Генеральный thrasher
User avatar
Joined: 03 Oct 2008
Posts: 3714
Lоcаtion: Ханты-Мансийский АО
Age: 44
Name: Сергей
Пожалуйста,Олег!Я потихоньку собираю этих парней.У меня тоже были рипы - непонятные,порой без логов и ковриков.Что-то ещё со времён NNM.В планах собрать всё.Чем и занимаюсь...


Top
 Profile  
 
 
PostPosted: 13 Mar 2015 
Доктор энтомологии
User avatar
Joined: 22 Jan 2009
Posts: 9805
Lоcаtion: Даугавпилс
Age: 44
Name: Алексей
:lob: :dance: не забыть скачать, а заодно и в памяти освежить.
Сергей, тебе лично какой их альбом более по душе?


Top
 Profile  
 
 
PostPosted: 13 Mar 2015 
\m/ 80 см сала \m/
User avatar
Joined: 12 Mar 2012
Posts: 2590
Age: 26
Name: Nick
:thanx:
Ты прямо мысли читаешь :shok: - отправил ссылку на тему знакомому меломану, который не так давно обращался с просьбой помочь найти некоторые альбомы :true:

_________________
1990 AUROPHON BRAINSTORM (Germany) - lossless
1994 MAUSOLEUM CLASSIX (Belgium-Germany) - lossless
1998 VA - GRIM HARVEST - Complete Metal Massacre Volumes I-XII


Top
 Profile  
 
 
PostPosted: 13 Mar 2015 
Генеральный thrasher
User avatar
Joined: 03 Oct 2008
Posts: 3714
Lоcаtion: Ханты-Мансийский АО
Age: 44
Name: Сергей
:lob: :dance: не забыть скачать, а заодно и в памяти освежить.
Сергей, тебе лично какой их альбом более по душе?


Мне первые три больше всего по душе.


Top
 Profile  
 
 
PostPosted: 13 Mar 2015 
Доктор энтомологии
User avatar
Joined: 22 Jan 2009
Posts: 9805
Lоcаtion: Даугавпилс
Age: 44
Name: Алексей
:thanx:


Top
 Profile  
 
 
PostPosted: 13 Mar 2015 
Генеральный thrasher
User avatar
Joined: 03 Oct 2008
Posts: 3714
Lоcаtion: Ханты-Мансийский АО
Age: 44
Name: Сергей
Image

Year:2004
Style:Speed/Thrash Metal
Country:Japan
Audio:Flac+Cue+Log+Scans
Size:364Mb
Source:my CD
Label:Victor Entertainment
Catalog ID:VICP-62665

Tracklist:
01. Bleed Out 04:42
02. Deadbeat 02:53
03. Outta Change 02:28
04. China Doll 05:58
05. Cat & Nines 03:37
06. Do it Again 02:33
07. Annihilist Existentialist 04:51
08. Mental Asylum 02:32
09. I Can See For Miles 04:52
10. Big Mouth 04:40
11. Hit And Run 04:11
12. La Luna del Desierto 06:00
"Cue"
REM GENRE "Thrash Metal"
REM DATE 2004
REM DISCID B212830D
REM COMMENT "ExactAudioCopy v0.99pb5"
PERFORMER "OUTRAGE"
TITLE "Cause For Pause"
FILE "OUTRAGE - Cause For Pause.flac" WAVE
TRACK 01 AUDIO
TITLE "Bleed Out"
PERFORMER "OUTRAGE"
INDEX 01 00:00:00
TRACK 02 AUDIO
TITLE "Deadbeat"
PERFORMER "OUTRAGE"
INDEX 01 04:42:25
TRACK 03 AUDIO
TITLE "Outta Change"
PERFORMER "OUTRAGE"
INDEX 01 07:36:00
TRACK 04 AUDIO
TITLE "China Doll"
PERFORMER "OUTRAGE"
INDEX 00 10:04:42
INDEX 01 10:07:27
TRACK 05 AUDIO
TITLE "Cat & Nines"
PERFORMER "OUTRAGE"
INDEX 00 16:05:35
INDEX 01 16:05:52
TRACK 06 AUDIO
TITLE "Do It Again"
PERFORMER "OUTRAGE"
INDEX 00 19:42:55
INDEX 01 19:42:57
TRACK 07 AUDIO
TITLE "Annihilist Existentialist"
PERFORMER "OUTRAGE"
INDEX 00 22:16:52
INDEX 01 22:18:70
TRACK 08 AUDIO
TITLE "Mental Asylum"
PERFORMER "OUTRAGE"
INDEX 00 27:10:02
INDEX 01 27:10:32
TRACK 09 AUDIO
TITLE "I Can See For Miles"
PERFORMER "OUTRAGE"
INDEX 01 29:42:65
TRACK 10 AUDIO
TITLE "Big Mouth"
PERFORMER "OUTRAGE"
INDEX 00 34:35:27
INDEX 01 34:35:32
TRACK 11 AUDIO
TITLE "Hit And Run"
PERFORMER "OUTRAGE"
INDEX 00 39:15:52
INDEX 01 39:17:70
TRACK 12 AUDIO
TITLE "La Luna Del Desierto"
PERFORMER "OUTRAGE"
INDEX 01 43:29:22

"Log"
Exact Audio Copy V0.99 prebeta 5 from 4. May 2009

Отчёт EAC об извлечении, выполненном 16. января 2014, 21:02

OUTRAGE / Cause For Pause

Дисковод: MATSHITADVD-RAM UJ8A0AS Adapter: 0 ID: 1

Режим чтения : Достоверность
Использование точного потока : Да
Отключение кэша аудио : Да
Использование указателей C2 : Нет

Коррекция смещения при чтении : 102
Способность читать области Lead-in и Lead-out : Нет
Заполнение пропущенных сэмплов тишиной : Да
Удаление блоков с тишиной в начале и конце : Нет
При вычислениях CRC использовались нулевые сэмплы : Да
Интерфейс : Встроенный Win32-интерфейс для Win NT/2000

Выходной формат : Пользовательский кодировщик
Выбранный битрейт : 1024 kBit/s
Качество : Высокий
Добавление ID3-тэга : Нет
Утилита сжатия : C:\Program Files\Exact Audio Copy\FLAC\FLAC.EXE
Дополнительные параметры : -6 -V -T "ARTIST=%a" -T "TITLE=%t" -T "ALBUM=%g" -T "DATE=%y" -T "TRACKNUMBER=%n" -T "GENRE=%m" -T "COMMENT=%e" %s -o %d


TOC извлечённого CD

Трек | Старт | Длительность | Начальный сектор | Конечный сектор
---------------------------------------------------------------------
1 | 0:00.00 | 4:42.25 | 0 | 21174
2 | 4:42.25 | 2:53.50 | 21175 | 34199
3 | 7:36.00 | 2:31.27 | 34200 | 45551
4 | 10:07.27 | 5:58.25 | 45552 | 72426
5 | 16:05.52 | 3:37.05 | 72427 | 88706
6 | 19:42.57 | 2:36.13 | 88707 | 100419
7 | 22:18.70 | 4:51.37 | 100420 | 122281
8 | 27:10.32 | 2:32.33 | 122282 | 133714
9 | 29:42.65 | 4:52.42 | 133715 | 155656
10 | 34:35.32 | 4:42.38 | 155657 | 176844
11 | 39:17.70 | 4:11.27 | 176845 | 195696
12 | 43:29.22 | 6:00.05 | 195697 | 222701
13 | 52:01.27 | 26:58.17 | 234102 | 355468


Характеристики диапазона извлечения и сообщения об ошибках

Выбранный диапазон

Имя файла C:\Users\эксперт\Music\OUTRAGE - Cause For Pause.wav

Пиковый уровень 98.8 %
Качество диапазона 100.0 %
CRC копии 674208B8
Копирование... OK

Ошибок не произошло


AccurateRip: сводка

Трек 1 нет в базе данных
Трек 2 нет в базе данных
Трек 3 нет в базе данных
Трек 4 нет в базе данных
Трек 5 нет в базе данных
Трек 6 нет в базе данных
Трек 7 нет в базе данных
Трек 8 нет в базе данных
Трек 9 нет в базе данных
Трек 10 нет в базе данных
Трек 11 нет в базе данных
Трек 12 нет в базе данных

Ни одного трека нет в базе AccurateRip

Конец отчёта


Cause For Pause


Top
 Profile  
 
 
PostPosted: 14 Mar 2015 
Генеральный thrasher
User avatar
Joined: 03 Oct 2008
Posts: 3714
Lоcаtion: Ханты-Мансийский АО
Age: 44
Name: Сергей
Image

Year:2008
Style:Speed/Thrash Metal
Country:Japan
Audio:Flac+Cue+Log+Scans
Size:364Mb+438Mb
Source:my CD
Label:Victor Entertainment
Catalog ID:VICP-64146~7

CD 1:
01.My Final Day 05:06
02.Madness 04:53
03.Follow 06:13
04.Wings 04:01
05.Sad Survivor 04:00
06.Visions 06:10
07.Veiled Sky 06:20
08.River 04:40
09.Fangs 05:17

CD 2:
01.Megalomania 05:31
02.Vanishing Fully From The World 05:35
03.Undertow 06:33
04.Midnite Carnival 05:01
05.In Union With Earth 07:29
06.Echo 03:24
07.Draggin' Me Down (Fear Is) 06:26
08.You Suck 04:49
09.Concrete Mirror 03:39
10.Argument 04:35
11.Live Until You Die 05:21

"CD 1 Cue"
REM GENRE "Thrash Metal"
REM DATE 2008
REM DISCID 790AF309
REM COMMENT "ExactAudioCopy v0.99pb5"
PERFORMER "OUTRAGE"
TITLE "AWAKENING 2008 [DISC 1] THE FINAL DAY"
FILE "OUTRAGE - AWAKENING 2008 [DISC 1] THE FINAL DAY.flac" WAVE
TRACK 01 AUDIO
TITLE "My Final Day (LIVE)"
PERFORMER "OUTRAGE"
INDEX 01 00:00:00
TRACK 02 AUDIO
TITLE "Madness (LIVE)"
PERFORMER "OUTRAGE"
INDEX 01 05:06:71
TRACK 03 AUDIO
TITLE "Follow (LIVE)"
PERFORMER "OUTRAGE"
INDEX 01 10:00:19
TRACK 04 AUDIO
TITLE "Wings (LIVE)"
PERFORMER "OUTRAGE"
INDEX 01 16:13:41
TRACK 05 AUDIO
TITLE "Sad Survivor (LIVE)"
PERFORMER "OUTRAGE"
INDEX 01 20:15:12
TRACK 06 AUDIO
TITLE "Visions (LIVE)"
PERFORMER "OUTRAGE"
INDEX 01 24:15:16
TRACK 07 AUDIO
TITLE "Veiled Sky (LIVE)"
PERFORMER "OUTRAGE"
INDEX 01 30:25:39
TRACK 08 AUDIO
TITLE "River (LIVE)"
PERFORMER "OUTRAGE"
INDEX 01 36:45:57
TRACK 09 AUDIO
TITLE "Fangs (LIVE)"
PERFORMER "OUTRAGE"
INDEX 01 41:26:52

"CD 2 Cue"
REM GENRE "Thrash Metal"
REM DATE 2008
REM DISCID 940DB40B
REM COMMENT "ExactAudioCopy v0.99pb5"
PERFORMER "OUTRAGE"
TITLE "AWAKENING 2008 (DISC 2) LIFE UNTIL DEAF"
FILE "OUTRAGE - AWAKENING 2008 (DISC 2) LIFE UNTIL DEAF.flac" WAVE
TRACK 01 AUDIO
TITLE "Megalomania"
PERFORMER "OUTRAGE"
INDEX 01 00:00:00
TRACK 02 AUDIO
TITLE "Vanishing Fully From The World"
PERFORMER "OUTRAGE"
INDEX 01 05:31:58
TRACK 03 AUDIO
TITLE "Undertow"
PERFORMER "OUTRAGE"
INDEX 01 11:07:35
TRACK 04 AUDIO
TITLE "Midnite Carnival"
PERFORMER "OUTRAGE"
INDEX 01 17:41:16
TRACK 05 AUDIO
TITLE "In Union With Earth"
PERFORMER "OUTRAGE"
INDEX 01 22:42:38
TRACK 06 AUDIO
TITLE "Echo"
PERFORMER "OUTRAGE"
INDEX 01 30:12:13
TRACK 07 AUDIO
TITLE "Draggin' Me Down (Fear Is)"
PERFORMER "OUTRAGE"
INDEX 01 33:36:72
TRACK 08 AUDIO
TITLE "You Suck"
PERFORMER "OUTRAGE"
INDEX 01 40:02:74
TRACK 09 AUDIO
TITLE "Concrete Mirror"
PERFORMER "OUTRAGE"
INDEX 01 44:52:69
TRACK 10 AUDIO
TITLE "Argument"
PERFORMER "OUTRAGE"
INDEX 01 48:31:69
TRACK 11 AUDIO
TITLE "Live Until You Die"
PERFORMER "OUTRAGE"
INDEX 01 53:07:05

"CD 1 Log"
Exact Audio Copy V0.99 prebeta 5 from 4. May 2009

Отчёт EAC об извлечении, выполненном 19. марта 2014, 12:04

OUTRAGE / AWAKENING 2008 [DISC 1] THE FINAL DAY

Дисковод: MATSHITADVD-RAM UJ8A0AS Adapter: 0 ID: 1

Режим чтения : Достоверность
Использование точного потока : Да
Отключение кэша аудио : Да
Использование указателей C2 : Нет

Коррекция смещения при чтении : 102
Способность читать области Lead-in и Lead-out : Нет
Заполнение пропущенных сэмплов тишиной : Да
Удаление блоков с тишиной в начале и конце : Нет
При вычислениях CRC использовались нулевые сэмплы : Да
Интерфейс : Встроенный Win32-интерфейс для Win NT/2000

Выходной формат : Пользовательский кодировщик
Выбранный битрейт : 1024 kBit/s
Качество : Высокий
Добавление ID3-тэга : Нет
Утилита сжатия : C:\Program Files\Exact Audio Copy\FLAC\FLAC.EXE
Дополнительные параметры : -6 -V -T "ARTIST=%a" -T "TITLE=%t" -T "ALBUM=%g" -T "DATE=%y" -T "TRACKNUMBER=%n" -T "GENRE=%m" -T "COMMENT=%e" %s -o %d


TOC извлечённого CD

Трек | Старт | Длительность | Начальный сектор | Конечный сектор
---------------------------------------------------------------------
1 | 0:00.00 | 5:06.71 | 0 | 23020
2 | 5:06.71 | 4:53.23 | 23021 | 45018
3 | 10:00.19 | 6:13.22 | 45019 | 73015
4 | 16:13.41 | 4:01.46 | 73016 | 91136
5 | 20:15.12 | 4:00.04 | 91137 | 109140
6 | 24:15.16 | 6:10.23 | 109141 | 136913
7 | 30:25.39 | 6:20.18 | 136914 | 165431
8 | 36:45.57 | 4:40.70 | 165432 | 186501
9 | 41:26.52 | 5:17.13 | 186502 | 210289


Характеристики диапазона извлечения и сообщения об ошибках

Выбранный диапазон

Имя файла C:\Users\эксперт\Music\OUTRAGE - AWAKENING 2008 [DISC 1] THE FINAL DAY.wav

Пиковый уровень 98.8 %
Качество диапазона 100.0 %
CRC копии D35AE3BE
Копирование... OK

Ошибок не произошло


AccurateRip: сводка

Трек 1 точность не определена (достоверность 1) [4B4BE3FA], AccurateRip вернул [27FF1DD8]
Трек 2 точность не определена (достоверность 1) [0038E6DC], AccurateRip вернул [153576DF]
Трек 3 точность не определена (достоверность 1) [D692D36B], AccurateRip вернул [6A0EECB7]
Трек 4 точность не определена (достоверность 1) [EBD04F3B], AccurateRip вернул [82A33FB0]
Трек 5 точность не определена (достоверность 1) [5850621B], AccurateRip вернул [79C60991]
Трек 6 точность не определена (достоверность 1) [7D61B79D], AccurateRip вернул [8F911F07]
Трек 7 точность не определена (достоверность 1) [7D41CDBB], AccurateRip вернул [6BFA8AD9]
Трек 8 точность не определена (достоверность 1) [C174D414], AccurateRip вернул [C42EB27D]
Трек 9 точность не определена (достоверность 1) [40D9B448], AccurateRip вернул [787A3704]

Ни один трек не прошёл проверки на точность
В вашей базе может быть иной вариант штамповки диска

Конец отчёта

"CD 2 Log"
Exact Audio Copy V0.99 prebeta 5 from 4. May 2009

Отчёт EAC об извлечении, выполненном 19. марта 2014, 13:07

OUTRAGE / AWAKENING 2008 (DISC 2) LIFE UNTIL DEAF

Дисковод: MATSHITADVD-RAM UJ8A0AS Adapter: 0 ID: 1

Режим чтения : Достоверность
Использование точного потока : Да
Отключение кэша аудио : Да
Использование указателей C2 : Нет

Коррекция смещения при чтении : 102
Способность читать области Lead-in и Lead-out : Нет
Заполнение пропущенных сэмплов тишиной : Да
Удаление блоков с тишиной в начале и конце : Нет
При вычислениях CRC использовались нулевые сэмплы : Да
Интерфейс : Встроенный Win32-интерфейс для Win NT/2000

Выходной формат : Пользовательский кодировщик
Выбранный битрейт : 1024 kBit/s
Качество : Высокий
Добавление ID3-тэга : Нет
Утилита сжатия : C:\Program Files\Exact Audio Copy\FLAC\FLAC.EXE
Дополнительные параметры : -6 -V -T "ARTIST=%a" -T "TITLE=%t" -T "ALBUM=%g" -T "DATE=%y" -T "TRACKNUMBER=%n" -T "GENRE=%m" -T "COMMENT=%e" %s -o %d


TOC извлечённого CD

Трек | Старт | Длительность | Начальный сектор | Конечный сектор
---------------------------------------------------------------------
1 | 0:00.00 | 5:31.58 | 0 | 24882
2 | 5:31.58 | 5:35.52 | 24883 | 50059
3 | 11:07.35 | 6:33.56 | 50060 | 79590
4 | 17:41.16 | 5:01.22 | 79591 | 102187
5 | 22:42.38 | 7:29.50 | 102188 | 135912
6 | 30:12.13 | 3:24.59 | 135913 | 151271
7 | 33:36.72 | 6:26.02 | 151272 | 180223
8 | 40:02.74 | 4:49.70 | 180224 | 201968
9 | 44:52.69 | 3:39.00 | 201969 | 218393
10 | 48:31.69 | 4:35.11 | 218394 | 239029
11 | 53:07.05 | 5:21.10 | 239030 | 263114


Характеристики диапазона извлечения и сообщения об ошибках

Выбранный диапазон

Имя файла C:\Users\эксперт\Music\OUTRAGE - AWAKENING 2008 (DISC 2) LIFE UNTIL DEAF.wav

Пиковый уровень 98.9 %
Качество диапазона 100.0 %
CRC копии 873B7905
Копирование... OK

Ошибок не произошло


AccurateRip: сводка

Трек 1 точность не определена (достоверность 1) [C5933014], AccurateRip вернул [8FE778A1]
Трек 2 точность не определена (достоверность 1) [D4EC69ED], AccurateRip вернул [E2F410FB]
Трек 3 точность не определена (достоверность 1) [ED5AE74E], AccurateRip вернул [520B399F]
Трек 4 точность не определена (достоверность 1) [E4593FCB], AccurateRip вернул [1D8103F6]
Трек 5 точность не определена (достоверность 1) [38F3591F], AccurateRip вернул [FE736743]
Трек 6 точность не определена (достоверность 1) [7B0D4BC6], AccurateRip вернул [7A20DA49]
Трек 7 точность не определена (достоверность 1) [1A50E935], AccurateRip вернул [07DE0EB0]
Трек 8 точность не определена (достоверность 1) [5E8B0DB9], AccurateRip вернул [78097F72]
Трек 9 точность не определена (достоверность 1) [0B12128E], AccurateRip вернул [6A7BD6AD]
Трек 10 точность не определена (достоверность 1) [498B0674], AccurateRip вернул [267EE9D4]
Трек 11 точность не определена (достоверность 1) [895C454B], AccurateRip вернул [A51BA372]

Ни один трек не прошёл проверки на точность
В вашей базе может быть иной вариант штамповки диска

Конец отчёта


Awakening CD 1
Awakening CD 2


Top
 Profile  
 
 
PostPosted: 16 Mar 2015 
Генеральный thrasher
User avatar
Joined: 03 Oct 2008
Posts: 3714
Lоcаtion: Ханты-Мансийский АО
Age: 44
Name: Сергей
Прикупил второй альбом.Придёт - продолжим дискографию... :lloo:


Top
 Profile  
 
Display posts from previous:  Sort by  
Post new topic Reply to topic  [ 99 posts ]  Go to page Previous  1, 2, 3, 4, 5  Next

All times are UTC + 3 hours


Who is online

Users browsing this forum: No registered users and 2 guests


You cannot post new topics in this forum
You cannot reply to topics in this forum
You cannot edit your posts in this forum
You cannot delete your posts in this forum
You cannot post attachments in this forum

Search for:
Яндекс.Метрика
Powered by phpBB © 2000, 2002, 2005, 2007 phpBB Group