\m/ 80's metal \m/

Информационно-аналитический форум "80 см пыли" (In Search We Trust) "У нас никто никуда не спешит"
Me For You - http://me-4u.com
It is currently 17 Jul 2019

All times are UTC + 3 hours

Spoiler
Chat - temporary registration for foreign users (please leave your application here)







Post new topic Reply to topic  [ 13 posts ] 
Author Message
 
PostPosted: 16 Oct 2013 
Хиппей (support team)
User avatar
Joined: 30 Jul 2007
Posts: 113522
Lоcаtion: Киев (Kyiv, UA)
Age: 46
Name: Andrey
Obus - 1987 - En Directo [ape]

ImageImage
ImageImageImage


Genre: Heavy Metal
Location: Spain
Format: ape + cue + log + scans
Size: 568 Mb


Line-up:
Fortu Sánchez - vocals
Paco Laguna - guitars
Juan Luis Serrano - bass
Fernando Sánchez - drums

    Disc 1
    1. Intro - 00:46
    2. Necesito más - 03:56
    3. La raya - 03:54
    4. El que más - 03:24
    5. Autopista - 04:54
    6. Va a estallar el obús - 03:36
    7. Crisis - 05:17
    8. Pesadilla nuclear - 04:20
    9. Dame amor - 04:33
    10. Te visitará la muerte - 03:50

    TPT: 38:30

    Disc 2
    1. Me persigues - 03:00
    2. Suena que atruena - 04:08
    3. Juego sucio - 03:42
    4. Metralla - 02:50
    5. Dinero, dinero - 05:20
    6. Complaciente o cruel - 05:50
    7. Rómpelo - 03:42
    8. Mentiroso - 03:20
    9. Vamos muy bien - 06:49

    TPT: 38:41

Narod

Стянул лосика по Оксанкиной якобы дохленькой ссылке :thanx:

Музыка, по сути, испанские Присты :pardon:

log
EAC extraction logfile from 4. December 2005, 16:33 for CD
OBUS / En Directo....... 21-2-87

Used drive : LITE-ON DVDRW SOHW-832S Adapter: 0 ID: 0
Read mode : Secure with NO C2, accurate stream, disable cache
Read offset correction : 12
Overread into Lead-In and Lead-Out : No

Used output format : C:\Archivos de programa\Exact Audio Copy\MAC.exe (Monkey's Audio Lossless Encoder)
High Lossless Compression

Other options :
Fill up missing offset samples with silence : Yes
Delete leading and trailing silent blocks : No
Installed external ASPI interface


Range status and errors
Selected range
Filename F:\CDImage.wav

Peak level 99.9 %
Range quality 100.0 %
CRC 634D9C7C
Copy OK

No errors occured

End of status report

cue
PERFORMER "OBUS"
TITLE "En Directo....... 21-2-87"
FILE "CDImage.ape" WAVE
TRACK 01 AUDIO
TITLE "Intro"
PERFORMER "OBUS"
INDEX 01 00:00:00
TRACK 02 AUDIO
TITLE "Necesito Mas"
PERFORMER "OBUS"
INDEX 01 00:48:15
TRACK 03 AUDIO
TITLE "La Raya"
PERFORMER "OBUS"
INDEX 01 04:46:35
TRACK 04 AUDIO
TITLE "El Que Mas"
PERFORMER "OBUS"
INDEX 01 08:31:52
TRACK 05 AUDIO
TITLE "Autopista"
PERFORMER "OBUS"
INDEX 01 12:13:37
TRACK 06 AUDIO
TITLE "Va a Estallar el Obus"
PERFORMER "OBUS"
INDEX 01 17:12:35
TRACK 07 AUDIO
TITLE "Crisis"
PERFORMER "OBUS"
INDEX 01 20:52:67
TRACK 08 AUDIO
TITLE "Pesadilla Nuclear"
PERFORMER "OBUS"
INDEX 01 26:08:00
TRACK 09 AUDIO
TITLE "Dame Amor"
PERFORMER "OBUS"
INDEX 01 30:57:30
TRACK 10 AUDIO
TITLE "Te Visitara la Muerte"
PERFORMER "OBUS"
INDEX 01 35:55:02
TRACK 11 AUDIO
TITLE "Me Persigues"
PERFORMER "OBUS"
INDEX 01 39:37:47
TRACK 12 AUDIO
TITLE "Suena que Atruena"
PERFORMER "OBUS"
INDEX 01 42:43:15
TRACK 13 AUDIO
TITLE "Juego Sucio"
PERFORMER "OBUS"
INDEX 01 46:49:70
TRACK 14 AUDIO
TITLE "Metralla"
PERFORMER "OBUS"
INDEX 01 50:59:70
TRACK 15 AUDIO
TITLE "Dinero Dinero"
PERFORMER "OBUS"
INDEX 01 53:44:20
TRACK 16 AUDIO
TITLE "Complaciente o Cruel"
PERFORMER "OBUS"
INDEX 01 59:18:67
TRACK 17 AUDIO
TITLE "Rompelo"
PERFORMER "OBUS"
INDEX 01 64:57:47
TRACK 18 AUDIO
TITLE "Mentiroso"
PERFORMER "OBUS"
INDEX 01 68:06:45
TRACK 19 AUDIO
TITLE "Vamos Muy Bien"
PERFORMER "OBUS"
INDEX 01 72:05:30

spectrum
Image

_________________


Top
 Profile E-mail  
 
 
PostPosted: 14 Dec 2013 
HAMMER
User avatar
Joined: 16 May 2009
Posts: 5488
Lоcаtion: Тверь
Age: 46
Name: Александр
phpBB [youtube]

OBUS - " El que mas "

А не плохо так играют. Единственный минус для меня это шпанский язык.

Постер 18+
Image


Top
 Profile E-mail  
 
 
PostPosted: 14 Dec 2013 
Доктор энтомологии
User avatar
Joined: 22 Jan 2009
Posts: 9804
Lоcаtion: Даугавпилс
Age: 44
Name: Алексей
Клево! Не бритая девка :siski: жалко то ее как, что не любят особо :fingal:


Top
 Profile  
 
 
PostPosted: 14 Dec 2013 
HAMMER
User avatar
Joined: 16 May 2009
Posts: 5488
Lоcаtion: Тверь
Age: 46
Name: Александр
Интересно стало как переводится название группы. Гогель выдал Obus - бортовые устройства (наверное приборы или прибор) и еще предложил испанский вариант obús - гаубица. Вот гаубица бы лучше подошло для метал группы, но в написание умлаута не заметил. :umnik:


Top
 Profile E-mail  
 
 
PostPosted: 14 Dec 2013 
Доктор энтомологии
User avatar
Joined: 22 Jan 2009
Posts: 9804
Lоcаtion: Даугавпилс
Age: 44
Name: Алексей
Интересно стало как переводится название группы. Гогель выдал Obus - бортовые устройства (наверное приборы или прибор) и еще предложил испанский вариант obús - гаубица. Вот гаубица бы лучше подошло для метал группы, но в написание умлаута не заметил. :umnik:

Ну что-то вроде этого. Гишпанцы видать сразу двух зайцев убили, или трех. В преводе с французского будет - снаряд, граната, оболочка.


Top
 Profile  
 
 
PostPosted: 14 Dec 2013 
HAMMER
User avatar
Joined: 16 May 2009
Posts: 5488
Lоcаtion: Тверь
Age: 46
Name: Александр
Molot wrote:
прибор


Entomologist wrote:
снаряд



Хм, а вот глянув на постер с испанского журнал Heavy rock подумалось, а что могут волосатые парни на груди голой бабы ножом написать не иначе как дословно на русский будет хImage.



Кста, такой Image смайлик не помешает на форуме.


Top
 Profile E-mail  
 
 
PostPosted: 14 Dec 2013 
Хиппей (support team)
User avatar
Joined: 30 Jul 2007
Posts: 113522
Lоcаtion: Киев (Kyiv, UA)
Age: 46
Name: Andrey
А вот картиночный Гугель выдаёт нам... Собственно, саму группу, кучу снарядов (боеголовок), девок в неглиже и ботиночках, и... вот такого байкера :lloo:

Image

https://www.google.com/search?q=Obus&so ... 80&bih=908

_________________


Top
 Profile E-mail  
 
 
PostPosted: 14 Dec 2013 
Хиппей (support team)
User avatar
Joined: 30 Jul 2007
Posts: 113522
Lоcаtion: Киев (Kyiv, UA)
Age: 46
Name: Andrey
Molot wrote:
Кста, такой Image смайлик не помешает на форуме.

Ура! Спасибо :thanx: Забираю :true:
А поярче нету? :cry:
Ведь не многие смогут им пользоваться умело, как вот ты выше :(

_________________


Top
 Profile E-mail  
 
 
PostPosted: 14 Dec 2013 
HAMMER
User avatar
Joined: 16 May 2009
Posts: 5488
Lоcаtion: Тверь
Age: 46
Name: Александр
А глянь здесь. http://yoursmileys.ru/t-censored.php :vic:


Top
 Profile E-mail  
 
 
PostPosted: 14 Dec 2013 
Хиппей (support team)
User avatar
Joined: 30 Jul 2007
Posts: 113522
Lоcаtion: Киев (Kyiv, UA)
Age: 46
Name: Andrey
Ага, пасибке. Пробую...

Image Imageать через коромысло Image да промеж Image бровей :fingal:

_________________


Top
 Profile E-mail  
 
 
PostPosted: 14 Dec 2013 
Хиппей (support team)
User avatar
Joined: 30 Jul 2007
Posts: 113522
Lоcаtion: Киев (Kyiv, UA)
Age: 46
Name: Andrey
О! Серенький понравился :true:

_________________


Top
 Profile E-mail  
 
 
PostPosted: 14 Dec 2013 
HAMMER
User avatar
Joined: 16 May 2009
Posts: 5488
Lоcаtion: Тверь
Age: 46
Name: Александр
Что за хImage, проба пера. Поярче сделал. :umnik:


Top
 Profile E-mail  
 
 
PostPosted: 14 Dec 2013 
Хиппей (support team)
User avatar
Joined: 30 Jul 2007
Posts: 113522
Lоcаtion: Киев (Kyiv, UA)
Age: 46
Name: Andrey
Не-не, Сань, спасибо нинада =)) Вот серенькая как раз под цвет текста подходит. Его будет и почти не заметно и... и заметно :umnik:

_________________


Top
 Profile E-mail  
 
Display posts from previous:  Sort by  
Post new topic Reply to topic  [ 13 posts ] 

All times are UTC + 3 hours


Who is online

Users browsing this forum: No registered users and 1 guest


You cannot post new topics in this forum
You cannot reply to topics in this forum
You cannot edit your posts in this forum
You cannot delete your posts in this forum
You cannot post attachments in this forum

Search for:
Яндекс.Метрика
Powered by phpBB © 2000, 2002, 2005, 2007 phpBB Group