\m/ 80's metal \m/

Информационно-аналитический форум "80 см пыли" (In Search We Trust) "У нас никто никуда не спешит"
Me For You - http://me-4u.com
It is currently 23 Jul 2019

All times are UTC + 3 hours

Spoiler
Chat - temporary registration for foreign users (please leave your application here)







Post new topic Reply to topic  [ 8 posts ] 
Author Message
 
PostPosted: 15 May 2013 
Генеральный thrasher
User avatar
Joined: 03 Oct 2008
Posts: 3714
Lоcаtion: Ханты-Мансийский АО
Age: 44
Name: Сергей
Image

Year:2005
Style:Thrash Metal
Country:Mexico
Audio:Flac+Cue+Log+Scans
Source:my CD
Size:319Mb
Label:HC Records

Line-Up:
Arthurus Wilja - guitars,vocals
Vinni X - guitars
Rocko - bass
Adrian Wilja - drums

Tracklist:
01. Satanik Stuff 03:45
02. The Fornokator 03:55
03. Straight to hell 04:02
04. Breakpoint 06:27
05. Slam of Death 04:42
06. Stronger than Ever 05:06
07. No Match for Me 05:15
08. Kill and Kill 05:01
09. Super Soldier 02:58

"Cue"
REM GENRE "Thrash Metal"
REM DATE 2005
REM DISCID 800CC20A
REM COMMENT "ExactAudioCopy v0.99pb5"
PERFORMER "Orgone"
TITLE "Straight To Hell"
FILE "Orgone - Straight To Hell.flac" WAVE
TRACK 01 AUDIO
TITLE "Satanik Stuff"
PERFORMER "Orgone"
INDEX 01 00:00:00
TRACK 02 AUDIO
TITLE "The Fornikator"
PERFORMER "Orgone"
INDEX 00 03:45:67
INDEX 01 03:47:66
TRACK 03 AUDIO
TITLE "Straight To Hell"
PERFORMER "Orgone"
INDEX 00 07:43:40
INDEX 01 07:45:39
TRACK 04 AUDIO
TITLE "Breakpoint"
PERFORMER "Orgone"
INDEX 00 11:47:64
INDEX 01 11:49:63
TRACK 05 AUDIO
TITLE "Slam Of Death"
PERFORMER "Orgone"
INDEX 01 18:17:24
TRACK 06 AUDIO
TITLE "Stronger Than Ever"
PERFORMER "Orgone"
INDEX 00 22:59:60
INDEX 01 23:01:59
TRACK 07 AUDIO
TITLE "No Match For Me"
PERFORMER "Orgone"
INDEX 00 28:08:30
INDEX 01 28:10:29
TRACK 08 AUDIO
TITLE "Kill And Kill"
PERFORMER "Orgone"
INDEX 00 33:25:57
INDEX 01 33:27:56
TRACK 09 AUDIO
TITLE "Super Soldier"
PERFORMER "Orgone"
INDEX 00 38:29:53
INDEX 01 38:31:52

"Log"
Exact Audio Copy V0.99 prebeta 5 from 4. May 2009

Отчёт EAC об извлечении, выполненном 22. февраля 2013, 16:27

Orgone / Straight To Hell

Дисковод: TSSTcorpCDDVDW SH-S202N Adapter: 0 ID: 1

Режим чтения : Достоверность
Использование точного потока : Да
Отключение кэша аудио : Да
Использование указателей C2 : Нет

Коррекция смещения при чтении : 6
Способность читать области Lead-in и Lead-out : Нет
Заполнение пропущенных сэмплов тишиной : Да
Удаление блоков с тишиной в начале и конце : Нет
При вычислениях CRC использовались нулевые сэмплы : Да
Интерфейс : Встроенный Win32-интерфейс для Win NT/2000

Выходной формат : Пользовательский кодировщик
Выбранный битрейт : 768 kBit/s
Качество : Высокий
Добавление ID3-тэга : Нет
Утилита сжатия : C:\Program Files\Exact Audio Copy\FLAC\FLAC.EXE
Дополнительные параметры : -6 -V -T "ARTIST=%a" -T "TITLE=%t" -T "ALBUM=%g" -T "DATE=%y" -T "TRACKNUMBER=%n" -T "GENRE=%m" -T "COMMENT=%e" %s -o %d


TOC извлечённого CD

Трек | Старт | Длительность | Начальный сектор | Конечный сектор
---------------------------------------------------------------------
1 | 0:00.00 | 3:47.66 | 0 | 17090
2 | 3:47.66 | 3:57.48 | 17091 | 34913
3 | 7:45.39 | 4:04.24 | 34914 | 53237
4 | 11:49.63 | 6:27.36 | 53238 | 82298
5 | 18:17.24 | 4:44.35 | 82299 | 103633
6 | 23:01.59 | 5:08.45 | 103634 | 126778
7 | 28:10.29 | 5:17.27 | 126779 | 150580
8 | 33:27.56 | 5:03.71 | 150581 | 173376
9 | 38:31.52 | 2:58.05 | 173377 | 186731
10 | 44:01.57 | 10:24.28 | 198132 | 244959


Характеристики диапазона извлечения и сообщения об ошибках

Выбранный диапазон

Имя файла D:\Lossless Music\Orgone - Straight To Hell.wav

Пиковый уровень 100.0 %
Качество диапазона 100.0 %
CRC копии 5EAF7EAF
Копирование... OK

Ошибок не произошло


AccurateRip: сводка

Трек 1 нет в базе данных
Трек 2 нет в базе данных
Трек 3 нет в базе данных
Трек 4 нет в базе данных
Трек 5 нет в базе данных
Трек 6 нет в базе данных
Трек 7 нет в базе данных
Трек 8 нет в базе данных
Трек 9 нет в базе данных

Ни одного трека нет в базе AccurateRip

Конец отчёта


Straight To Hell


Top
 Profile  
 
 
PostPosted: 15 May 2013 
ТрэшЭрос
User avatar
Joined: 18 Jul 2011
Posts: 2303
Lоcаtion: Гулькевичи
Age: 44
Name: Александр
thorbeorn, :thanx:
Не слышал ентих амигос! :true:

_________________
Thrash no trash!!!


Top
 Profile E-mail  
 
 
PostPosted: 15 May 2013 
Генеральный thrasher
User avatar
Joined: 03 Oct 2008
Posts: 3714
Lоcаtion: Ханты-Мансийский АО
Age: 44
Name: Сергей
Можно сказать,мексиканская Metallica... :benya:


Top
 Profile  
 
 
PostPosted: 15 May 2013 
Работнечег
User avatar
Joined: 28 Aug 2007
Posts: 5919
Lоcаtion: г. Москва
Age: 30
Name: Дима
Спасибо, Серег! Латиносы как правило не подводят))


Top
 Profile E-mail  
 
 
PostPosted: 02 Jul 2013 
Хиппей (support team)
User avatar
Joined: 30 Jul 2007
Posts: 113628
Lоcаtion: Киев (Kyiv, UA)
Age: 46
Name: Andrey
:thanx:

mirror: F-Bit l Narod

_________________


Top
 Profile E-mail  
 
 
PostPosted: 08 Apr 2014 
Хиппей (support team)
User avatar
Joined: 30 Jul 2007
Posts: 113628
Lоcаtion: Киев (Kyiv, UA)
Age: 46
Name: Andrey
thorbeorn wrote:
Straight To Hell

Quote:
Ничего не найдено
Возможно, владелец удалил файлы
или закрыл к ним доступ.
А может быть, вам досталась ссылка с опечаткой.

..хм... :vic:

В общем, это к иногда возникающему вопросу, зачем я постоянно переливаю файлы :lloo:

_________________


Top
 Profile E-mail  
 
 
PostPosted: 08 Apr 2014 
\m/ 80 см сала \m/
User avatar
Joined: 12 Mar 2012
Posts: 2590
Age: 26
Name: Nick
:thanx:

_________________
1990 AUROPHON BRAINSTORM (Germany) - lossless
1994 MAUSOLEUM CLASSIX (Belgium-Germany) - lossless
1998 VA - GRIM HARVEST - Complete Metal Massacre Volumes I-XII


Top
 Profile  
 
 
PostPosted: 09 Apr 2014 
Дежурный по КУПу
User avatar
Joined: 17 Aug 2007
Posts: 5871
Age: 51
Name: Ге
:thanx:

_________________
http://jp-mania.ru/
http://jp-tourdates.ucoz.ru/


Top
 Profile  
 
Display posts from previous:  Sort by  
Post new topic Reply to topic  [ 8 posts ] 

All times are UTC + 3 hours


Who is online

Users browsing this forum: No registered users and 1 guest


You cannot post new topics in this forum
You cannot reply to topics in this forum
You cannot edit your posts in this forum
You cannot delete your posts in this forum
You cannot post attachments in this forum

Search for:
Яндекс.Метрика
Powered by phpBB © 2000, 2002, 2005, 2007 phpBB Group