\m/ 80's metal \m/

Информационно-аналитический форум "80 см пыли" (In Search We Trust) "У нас никто никуда не спешит"
Me For You - http://me-4u.com
It is currently 24 Jul 2019

All times are UTC + 3 hours

Spoiler
Chat - temporary registration for foreign users (please leave your application here)







Post new topic Reply to topic  [ 5 posts ] 
Author Message
 
PostPosted: 27 Sep 2012 
Генеральный thrasher
User avatar
Joined: 03 Oct 2008
Posts: 3714
Lоcаtion: Ханты-Мансийский АО
Age: 44
Name: Сергей
Image

Year:1994
Style:Groove/Thrash Metal
Country:Brazil
Audio:Flac+Cue+Log+Scans
Size:365Mb
Source:мой CD
Label:Futurist Records

Line-Up:
Pedro Amorim "Bozó" - vocals
Sérgio Cichovicz - guitars
Cláudio David - guitars
Eddie Weber - bass
André Márcio - drums

Tracklist:
01.Rio, Samba e Porrada No Morro 00:48
02.Street Law 04:59
03.Straight To The Point 03:58
04.Progress Of Decadence 03:59
05.Capitalist Way 04:57
06.Deep In Your Mind 00:47
07.Noise From Brazil 00:54
08.Aluquisarrera 04:40
09.Favela 03:08
10.No Truce 04:54
11.Faithful Death 04:56
12.Stupid Generation 03:14
13.Zombie Factory 05:45

Cue
REM GENRE "Thrash Metal"
REM DATE 1994
REM DISCID 9E0B510D
REM COMMENT "ExactAudioCopy v0.99pb5"
PERFORMER "Overdose"
TITLE "Progress of Decadence"
FILE "Overdose - Progress of Decadence.flac" WAVE
TRACK 01 AUDIO
TITLE "Rio, Samba e Porrada No Morro"
PERFORMER "Overdose"
INDEX 01 00:00:00
TRACK 02 AUDIO
TITLE "Street Law"
PERFORMER "Overdose"
INDEX 01 00:48:60
TRACK 03 AUDIO
TITLE "Straight To The Point"
PERFORMER "Overdose"
INDEX 01 05:50:10
TRACK 04 AUDIO
TITLE "Progress of Decadence"
PERFORMER "Overdose"
INDEX 01 09:52:08
TRACK 05 AUDIO
TITLE "Capitalist Way"
PERFORMER "Overdose"
INDEX 01 14:06:47
TRACK 06 AUDIO
TITLE "Deep In Your Mind"
PERFORMER "Overdose"
INDEX 01 19:12:68
TRACK 07 AUDIO
TITLE "Noise From Brazil"
PERFORMER "Overdose"
INDEX 01 19:56:55
TRACK 08 AUDIO
TITLE "Aluquisarrera"
PERFORMER "Overdose"
INDEX 01 20:51:58
TRACK 09 AUDIO
TITLE "Favela"
PERFORMER "Overdose"
INDEX 01 25:31:55
TRACK 10 AUDIO
TITLE "No Truce"
PERFORMER "Overdose"
INDEX 01 28:40:65
TRACK 11 AUDIO
TITLE "Faithful Death"
PERFORMER "Overdose"
INDEX 01 33:36:00
TRACK 12 AUDIO
TITLE "Stupid Generation"
PERFORMER "Overdose"
INDEX 01 38:46:45
TRACK 13 AUDIO
TITLE "Zombie Factory"
PERFORMER "Overdose"
INDEX 01 42:01:10


Log
Exact Audio Copy V0.99 prebeta 5 from 4. May 2009

Отчёт EAC об извлечении, выполненном 27. сентября 2012, 15:49

Overdose / Progress Of Decadence

Дисковод: TSSTcorpCDDVDW SH-S202N Adapter: 0 ID: 1

Режим чтения : Достоверность
Использование точного потока : Да
Отключение кэша аудио : Да
Использование указателей C2 : Нет

Коррекция смещения при чтении : 6
Способность читать области Lead-in и Lead-out : Нет
Заполнение пропущенных сэмплов тишиной : Да
Удаление блоков с тишиной в начале и конце : Нет
При вычислениях CRC использовались нулевые сэмплы : Да
Интерфейс : Встроенный Win32-интерфейс для Win NT/2000

Выходной формат : Пользовательский кодировщик
Выбранный битрейт : 768 kBit/s
Качество : Высокий
Добавление ID3-тэга : Нет
Утилита сжатия : C:\Program Files\Exact Audio Copy\FLAC\FLAC.EXE
Дополнительные параметры : -6 -V -T "ARTIST=%a" -T "TITLE=%t" -T "ALBUM=%g" -T "DATE=%y" -T "TRACKNUMBER=%n" -T "GENRE=%m" -T "COMMENT=%e" %s -o %d


TOC извлечённого CD

Трек | Старт | Длительность | Начальный сектор | Конечный сектор
---------------------------------------------------------------------
1 | 0:00.00 | 0:48.60 | 0 | 3659
2 | 0:48.60 | 5:01.25 | 3660 | 26259
3 | 5:50.10 | 4:01.73 | 26260 | 44407
4 | 9:52.08 | 4:14.39 | 44408 | 63496
5 | 14:06.47 | 5:06.21 | 63497 | 86467
6 | 19:12.68 | 0:43.62 | 86468 | 89754
7 | 19:56.55 | 0:55.03 | 89755 | 93882
8 | 20:51.58 | 4:39.72 | 93883 | 114879
9 | 25:31.55 | 3:09.10 | 114880 | 129064
10 | 28:40.65 | 4:55.10 | 129065 | 151199
11 | 33:36.00 | 5:10.45 | 151200 | 174494
12 | 38:46.45 | 3:14.40 | 174495 | 189084
13 | 42:01.10 | 6:16.23 | 189085 | 217307


Характеристики диапазона извлечения и сообщения об ошибках

Выбранный диапазон

Имя файла E:\Лоси\O\Overdose - Progress Of Decadence.wav

Пиковый уровень 100.0 %
Качество диапазона 100.0 %
CRC копии AE98E820
Копирование... OK

Ошибок не произошло


AccurateRip: сводка

Трек 1 нет в базе данных
Трек 2 нет в базе данных
Трек 3 нет в базе данных
Трек 4 нет в базе данных
Трек 5 нет в базе данных
Трек 6 нет в базе данных
Трек 7 нет в базе данных
Трек 8 нет в базе данных
Трек 9 нет в базе данных
Трек 10 нет в базе данных
Трек 11 нет в базе данных
Трек 12 нет в базе данных
Трек 13 нет в базе данных

Ни одного трека нет в базе AccurateRip

Конец отчёта


Progress Of Decadence


Top
 Profile  
 
 
PostPosted: 27 Sep 2012 
ТрэшЭрос
User avatar
Joined: 18 Jul 2011
Posts: 2303
Lоcаtion: Гулькевичи
Age: 44
Name: Александр
:thanx:
Здесь уже грувность имеет место быть? И на М-А год указан 1993-й... :oops:

_________________
Thrash no trash!!!


Top
 Profile E-mail  
 
 
PostPosted: 27 Sep 2012 
Прокъмитолист
User avatar
Joined: 12 Aug 2007
Posts: 6579
Lоcаtion: Санктъ-Петербуркъ
Age: 51
Name: Олекъ
спасибо, Серёга! :thanx:

_________________
прокъметол - это музыко, от которово есть прок (ы)


Top
 Profile  
 
 
PostPosted: 28 Sep 2012 
Генеральный thrasher
User avatar
Joined: 03 Oct 2008
Posts: 3714
Lоcаtion: Ханты-Мансийский АО
Age: 44
Name: Сергей
:thanx:
Здесь уже грувность имеет место быть? И на М-А год указан 1993-й... :oops:


Саш,оригинал Cogumelo выпустила в 1993 году.Это же американский пресс годом спустя.


Top
 Profile  
 
 
PostPosted: 28 Sep 2012 
ТрэшЭрос
User avatar
Joined: 18 Jul 2011
Posts: 2303
Lоcаtion: Гулькевичи
Age: 44
Name: Александр
thorbeorn wrote:
пресс годом спустя

А-а-а!!! :umnik: Теперь я знаю, почему в продаже ежегодно новые диски песен Высоцкого появлются! :esel:

_________________
Thrash no trash!!!


Top
 Profile E-mail  
 
Display posts from previous:  Sort by  
Post new topic Reply to topic  [ 5 posts ] 

All times are UTC + 3 hours


Who is online

Users browsing this forum: No registered users and 2 guests


You cannot post new topics in this forum
You cannot reply to topics in this forum
You cannot edit your posts in this forum
You cannot delete your posts in this forum
You cannot post attachments in this forum

Search for:
Яндекс.Метрика
cron
Powered by phpBB © 2000, 2002, 2005, 2007 phpBB Group